<?xml version="1.0" standalone="no"?>
<!DOCTYPE svg PUBLIC "-//W3C//DTD SVG 1.1//EN" "http://www.w3.org/Graphics/SVG/1.1/DTD/svg11.dtd" >
<svg xmlns="http://www.w3.org/2000/svg">
<metadata></metadata>
<defs>
<font id="bitterbold" horiz-adv-x="1230" >
<font-face units-per-em="2048" ascent="1638" descent="-410" />
<missing-glyph horiz-adv-x="481" />
<glyph unicode="&#xfb01;" horiz-adv-x="1546" d="M82 885v170l184 35v81q0 217 125 329t412 112q121 0 245 -19t188 -38l64 -19l-4 -289h-225l-27 123q-121 16 -221 16q-138 0 -194 -46.5t-56 -131.5v-118l768 16v-891l144 -51v-164h-594v164l143 51v670h-461v-670l144 -51v-164h-615v164l164 51v670h-184z" />
<glyph unicode="&#xfb02;" horiz-adv-x="1531" d="M82 881v174l184 30v97q0 430 522 430q126 0 263 -13t211 -25l75 -13v-1346l185 -51v-164h-635v164l143 51v1153q-117 18 -217 18q-122 0 -181 -44.5t-59 -122.5v-134h267l-6 -204h-261v-666l144 -51v-164h-615v164l164 51v666h-184z" />
<glyph horiz-adv-x="2048" />
<glyph horiz-adv-x="2048" />
<glyph horiz-adv-x="682" />
<glyph unicode="&#xd;" horiz-adv-x="1228" />
<glyph unicode=" "  horiz-adv-x="481" />
<glyph unicode="&#x09;" horiz-adv-x="481" />
<glyph unicode="&#xa0;" horiz-adv-x="481" />
<glyph unicode="!" horiz-adv-x="696" d="M174 160q0 84 51.5 134t124.5 50q84 0 128 -48t44 -136q0 -85 -52.5 -136t-125.5 -51q-84 0 -127 48.5t-43 138.5zM186 1567h320l-37 -1032l-246 -11z" />
<glyph unicode="&#x22;" horiz-adv-x="903" d="M117 1024v578h276l-45 -578h-231zM528 1024v578h279l-47 -578h-232z" />
<glyph unicode="#" horiz-adv-x="1495" d="M123 289v211h217l35 252h-201v211h227l37 266h260l-36 -266h258l34 266h260l-34 -266h192v-211h-221l-33 -252h203v-211h-231l-37 -289h-260l36 289h-256l-38 -289h-261l39 289h-190zM600 500h258l33 252h-256z" />
<glyph unicode="$" horiz-adv-x="1130" d="M113 43v363h188l31 -154q69 -37 178 -37q98 0 163.5 37.5t65.5 107.5q0 35 -21.5 62t-57.5 46t-83 36t-99 35.5t-104 39.5t-99 53.5t-83 73t-57.5 101t-21.5 135.5q0 155 94.5 254t253.5 129v242h219v-234q78 -6 158 -24.5t120 -33.5l41 -15l-8 -336h-176l-39 151 q-86 31 -164 31q-95 0 -146.5 -35.5t-51.5 -93.5q0 -44 34.5 -76.5t89.5 -54.5t121.5 -44.5t133 -53.5t121.5 -72t89.5 -110.5t34.5 -159.5q0 -167 -97 -274t-261 -142v-289h-219v276q-84 4 -171 20.5t-132 30.5z" />
<glyph unicode="%" horiz-adv-x="1914" d="M113 1083q0 178 104 281.5t264 103.5q156 0 251 -93.5t95 -268.5q0 -177 -104.5 -283t-265.5 -106q-157 0 -250.5 91t-93.5 275zM348 1092q0 -97 27 -147t92 -50q67 0 96 50.5t29 152.5q0 96 -27.5 145t-93.5 49t-94.5 -51t-28.5 -149zM367 -16l856 1474h297l-856 -1474 h-297zM1063 338q0 178 104.5 281.5t264.5 103.5q156 0 251 -94t95 -269q0 -177 -105 -283t-266 -106q-157 0 -250.5 91.5t-93.5 275.5zM1298 346q0 -97 27 -146.5t92 -49.5q67 0 96 50t29 152q0 96 -27.5 145.5t-93.5 49.5t-94.5 -51.5t-28.5 -149.5z" />
<glyph unicode="&#x26;" horiz-adv-x="1386" d="M113 385q0 62 22.5 120t53 97t70.5 73.5t66 51t48 27.5q-1 1 -19 12t-25 16t-26.5 19t-30 23.5t-28.5 27.5t-28 34t-23 38.5t-20 44.5t-12 50t-5 58q0 191 138 291t378 100q107 0 230 -30.5t173 -55.5l-10 -323h-193q-15 55 -32 133q-70 27 -185 27q-93 0 -143.5 -47 t-50.5 -115q0 -88 68.5 -137.5t166.5 -49.5h629v-174l-143 -47v-217q0 -214 -148 -335.5t-403 -121.5q-260 0 -389 110.5t-129 299.5zM430 428q0 -97 59 -150t162 -53q108 0 171 61.5t63 174.5v188h-154q-133 0 -217 -55.5t-84 -165.5z" />
<glyph unicode="'" horiz-adv-x="491" d="M113 1024v578h276l-45 -578h-231z" />
<glyph unicode="(" horiz-adv-x="722" d="M111 573q0 283 82 515t258 489h266q-148 -225 -234 -491t-86 -508q0 -266 85.5 -551t232.5 -498h-264q-178 252 -259 494.5t-81 549.5z" />
<glyph unicode=")" horiz-adv-x="716" d="M-2 1577h266q176 -257 258 -489t82 -515q0 -308 -81 -550.5t-259 -493.5h-264q147 212 232 497.5t85 551.5q0 242 -85.5 508t-233.5 491z" />
<glyph unicode="*" horiz-adv-x="854" d="M51 1174l62 182l235 -92l37 -88l-80 -46zM137 930l168 200l92 7l21 -90l-123 -228zM319 1507l191 4l-18 -249l-74 -60l-70 62zM418 1047l22 90l92 -11l168 -194l-149 -113zM457 1180l35 82l227 100l63 -184l-250 -52z" />
<glyph unicode="+" horiz-adv-x="1269" d="M86 432v242h414v418h272v-418h410v-242h-410v-432h-272v432h-414z" />
<glyph unicode="," horiz-adv-x="620" d="M82 -272q14 18 34.5 47.5t54.5 95.5t34 102q0 24 -30 80t-30 109q0 82 50.5 132t126.5 50q78 0 125 -49t47 -139q0 -230 -283 -535z" />
<glyph unicode="-" horiz-adv-x="808" d="M113 430v256h583v-256h-583z" />
<glyph unicode="." horiz-adv-x="614" d="M133 160q0 84 51.5 134t124.5 50q84 0 128 -48t44 -136q0 -86 -51.5 -136.5t-124.5 -50.5q-84 0 -128 48.5t-44 138.5z" />
<glyph unicode="/" horiz-adv-x="1056" d="M41 0l682 1444h313l-684 -1444h-311z" />
<glyph unicode="0" horiz-adv-x="1320" d="M123 711q0 183 30.5 320t96.5 236.5t173.5 150t256.5 50.5q150 0 253.5 -47t163 -142.5t85.5 -225.5t26 -312q0 -378 -133 -573t-416 -195q-280 0 -408 186t-128 552zM455 721q0 -267 49 -379.5t164 -112.5q114 0 160 112.5t46 389.5q0 271 -44 376t-162 105t-165.5 -108 t-47.5 -383z" />
<glyph unicode="1" horiz-adv-x="1101" d="M31 1133l487 311h262v-1208h277v-236h-881v236h287v880l-313 -201z" />
<glyph unicode="2" horiz-adv-x="1243" d="M82 0v250q114 92 178 144.5t148.5 125t130.5 117.5t98 102t76.5 99t41.5 87.5t17 88.5q0 94 -65.5 149.5t-174.5 55.5q-48 0 -95.5 -9.5t-70.5 -18.5l-24 -9l-20 -174h-216l-10 378q26 9 70.5 22.5t164 36.5t216.5 23q128 0 226.5 -20.5t175 -65.5t117 -125t40.5 -192 q0 -85 -27 -166.5t-70.5 -153t-122 -157.5t-158 -159.5t-202.5 -178.5h615v-250h-1059z" />
<glyph unicode="3" horiz-adv-x="1212" d="M51 86l86 225q21 -10 56.5 -24t132 -38t176.5 -24q124 0 192 53.5t68 155.5q0 94 -76 147.5t-215 53.5h-160v215h170q128 0 197.5 50.5t69.5 148.5q0 78 -60 124t-166 46q-45 0 -95 -7.5t-77 -15.5l-28 -8l-21 -164h-215l-10 358q28 10 75.5 24t168.5 38t212 24 q527 0 527 -368q0 -132 -65.5 -222.5t-190.5 -123.5q130 -29 208.5 -118.5t78.5 -205.5q0 -97 -33.5 -175t-89.5 -129.5t-132.5 -86t-159.5 -49.5t-173 -15q-73 0 -146.5 11.5t-126 27.5t-94.5 32.5t-63 27.5z" />
<glyph unicode="4" horiz-adv-x="1284" d="M31 532q44 65 279.5 412t361.5 531l342 -31v-901h205v-252h-205v-291h-316v291h-637zM338 543h364v540z" />
<glyph unicode="5" horiz-adv-x="1146" d="M35 86l88 225q21 -10 56.5 -24t131 -38t174.5 -24q102 0 168 55t66 150q0 115 -94.5 167t-286.5 52h-221l35 795h839l-6 -252h-543l-14 -307q297 0 464 -111.5t167 -312.5q0 -151 -77 -263.5t-198.5 -167.5t-265.5 -55q-78 0 -156.5 11.5t-135 27.5t-101.5 32.5t-67 27.5 z" />
<glyph unicode="6" horiz-adv-x="1275" d="M113 604q0 187 47.5 343t140 273t241 182.5t339.5 65.5q54 0 100 -5t65 -10l19 -5l-14 -240q-62 11 -160 11q-90 0 -163.5 -22.5t-119.5 -58t-81 -79t-52 -87t-27 -79t-12 -57.5l-2 -23q16 10 45 24.5t113.5 39t161.5 24.5q95 0 176 -27.5t142.5 -79.5t96.5 -135t35 -188 q0 -141 -70 -255.5t-193 -178.5t-275 -64q-133 0 -239 48t-174 133.5t-104 200t-36 249.5zM426 539q0 -159 67 -236.5t171 -77.5q98 0 157.5 58t59.5 157q0 105 -56.5 162t-165.5 57q-58 0 -116.5 -17.5t-87.5 -35.5l-29 -18v-49z" />
<glyph unicode="7" horiz-adv-x="1087" d="M10 997v447h1045v-221l-537 -1223h-338l531 1188h-453l-41 -191h-207z" />
<glyph unicode="8" horiz-adv-x="1265" d="M92 393q0 215 262 346q-102 57 -158.5 134t-56.5 194q0 190 139 295.5t379 105.5q231 0 356.5 -106.5t125.5 -280.5q0 -63 -22 -116.5t-59.5 -90.5t-71 -59.5t-71.5 -40.5q120 -57 189.5 -139.5t69.5 -212.5q0 -200 -155.5 -324.5t-408.5 -124.5q-249 0 -383.5 116 t-134.5 304zM414 408q0 -89 56.5 -136t160.5 -47t161.5 50t57.5 139q0 41 -18 74t-56.5 59.5t-75 43.5t-96.5 40q-190 -87 -190 -223zM444 1067q0 -38 16.5 -68.5t51 -54.5t68 -40t86.5 -36q28 12 53 27.5t52.5 39.5t43.5 58.5t16 73.5q0 68 -52.5 110t-141.5 42 q-90 0 -141.5 -42t-51.5 -110z" />
<glyph unicode="9" horiz-adv-x="1263" d="M66 971q0 218 153 357.5t385 139.5q133 0 239 -47.5t174 -132.5t104 -199t36 -249q0 -149 -29 -279t-90 -238.5t-150.5 -186t-216.5 -120.5t-282 -43q-54 0 -100 5t-65 10l-19 6l14 239q62 -8 160 -8q92 0 166.5 22t120.5 57.5t81 78.5t51 86t25.5 78.5t10.5 57.5l2 22 q-16 -9 -45 -23t-113.5 -37.5t-161.5 -23.5q-95 0 -176 27t-142.5 79t-96.5 134.5t-35 187.5zM389 1001q0 -104 56 -161.5t165 -57.5q58 0 116.5 18.5t87.5 37.5l30 18v55q0 155 -67.5 231.5t-170.5 76.5q-98 0 -157.5 -59t-59.5 -159z" />
<glyph unicode=":" horiz-adv-x="624" d="M137 160q0 84 52.5 134t125.5 50q84 0 127 -47.5t43 -136.5q0 -86 -51.5 -136.5t-124.5 -50.5q-84 0 -128 48.5t-44 138.5zM137 774q0 85 52.5 136t125.5 51q84 0 127 -48.5t43 -138.5q0 -84 -51.5 -134t-124.5 -50q-84 0 -128 48t-44 136z" />
<glyph unicode=";" horiz-adv-x="636" d="M86 -272q14 18 34.5 47.5t54.5 95.5t34 102q0 24 -29.5 80t-29.5 109q0 82 50 132t128 50t124 -49t46 -139q0 -229 -281 -535zM150 774q0 86 51.5 136.5t124.5 50.5q84 0 128 -48.5t44 -138.5q0 -84 -51.5 -134t-124.5 -50q-84 0 -128 48t-44 136z" />
<glyph unicode="&#x3c;" horiz-adv-x="1222" d="M82 426v246l1059 448v-266l-727 -307l727 -297v-270z" />
<glyph unicode="=" horiz-adv-x="1228" d="M102 219v236h1024v-236h-1024zM102 659v236h1024v-236h-1024z" />
<glyph unicode="&#x3e;" horiz-adv-x="1222" d="M82 -20v270l727 297l-727 307v266l1059 -448v-246z" />
<glyph unicode="?" horiz-adv-x="950" d="M133 1526q170 49 305 49q82 0 151.5 -16.5t129.5 -51.5t94.5 -99t34.5 -151q0 -64 -20.5 -123t-53 -105t-71.5 -88t-78.5 -79.5t-72 -73t-53 -74.5t-20.5 -77l4 -119l-272 -12q-18 133 -18 201q0 46 25.5 92.5t64 82t83.5 76t83.5 75.5t64 79t25.5 88q0 135 -185 135 q-39 0 -84.5 -5.5t-71.5 -11.5l-26 -5zM193 160q0 84 51.5 134t124.5 50q84 0 128 -48t44 -136q0 -85 -53 -136t-126 -51q-84 0 -126.5 48.5t-42.5 138.5z" />
<glyph unicode="@" horiz-adv-x="1679" d="M96 707q0 352 208 556.5t558 204.5q343 0 539 -186.5t196 -531.5q0 -211 -107.5 -330t-275.5 -119q-171 0 -245 127q-4 -5 -12 -13t-33.5 -28.5t-52 -36t-66.5 -28.5t-78 -13q-108 0 -169.5 63.5t-61.5 172.5q0 243 344 243h94v70q0 50 -29 73t-90 23q-41 0 -96 -8.5 t-90 -17.5l-35 -8l-39 151q18 7 49.5 17.5t113.5 27.5t146 17q157 0 229 -62t72 -197v-339q0 -34 19 -53t53 -19q64 0 99.5 70.5t35.5 205.5q0 251 -134 391t-386 140q-254 0 -392 -145t-138 -408q0 -266 120 -407.5t363 -141.5q62 0 126 13t97 25l33 13l84 -168 q-6 -3 -16.5 -8.5t-45.5 -20t-73.5 -25t-98 -19.5t-120.5 -9q-335 0 -515 190t-180 548zM711 563q0 -35 23 -55.5t61 -20.5q69 0 139 70v96h-80q-76 0 -109.5 -22t-33.5 -68z" />
<glyph unicode="A" horiz-adv-x="1531" d="M10 0v174l150 57l450 1207l328 6l440 -1213l144 -57v-174h-652v174l154 55l-49 150h-455l-51 -148l160 -57v-174h-619zM592 598h315l-153 485z" />
<glyph unicode="B" horiz-adv-x="1347" d="M72 0v174l153 62v962l-153 62v174l471 10h215q207 0 328.5 -89t121.5 -265q0 -261 -245 -338q144 -41 218 -125t74 -203q0 -424 -532 -424h-651zM543 246h170q107 0 163 46.5t56 131.5q0 112 -65.5 163.5t-204.5 51.5h-119v-393zM543 854h119q229 0 229 190q0 76 -48 115 t-126 39h-174v-344z" />
<glyph unicode="C" horiz-adv-x="1366" d="M113 700q0 358 186.5 563t503.5 205q110 0 229.5 -24t183.5 -48l64 -24l-10 -389h-201l-47 197q-96 32 -229 32q-164 0 -251 -124.5t-87 -376.5q0 -471 348 -471q57 0 118.5 14.5t107.5 35.5t84.5 42.5t58.5 35.5l20 15l113 -184q-9 -9 -25.5 -24t-71 -54t-113 -68.5 t-148 -53.5t-179.5 -24q-314 0 -484.5 185.5t-170.5 539.5z" />
<glyph unicode="D" horiz-adv-x="1501" d="M82 0v174l154 62v962l-154 62v174l471 10h195q311 0 481 -180.5t170 -522.5q0 -344 -184 -542.5t-498 -198.5h-635zM553 246h170q78 0 136.5 24.5t103.5 79t68.5 150.5t23.5 231q0 249 -80.5 358t-237.5 109h-184v-952z" />
<glyph unicode="E" horiz-adv-x="1273" d="M92 0v174l154 62v962l-154 62v174l471 10h574v-395h-185l-51 149h-338v-338h414v-225h-414v-389h367l47 168h184v-414h-1069z" />
<glyph unicode="F" horiz-adv-x="1187" d="M92 0v174l154 62v962l-154 62v174l471 10h574v-389h-191l-51 143h-332v-358h424v-226h-424v-378l189 -62v-174h-660z" />
<glyph unicode="G" horiz-adv-x="1536" d="M113 700q0 358 186.5 563t503.5 205q110 0 229.5 -24t183.5 -48l64 -24l-10 -368h-191l-51 176q-96 32 -231 32q-167 0 -254.5 -124t-87.5 -377q0 -475 348 -475q47 0 103.5 9t89.5 18l32 9v258l-154 48v167l590 11v-178l-139 -48v-417q-9 -6 -25 -15t-71 -33t-115.5 -42 t-154.5 -33t-191 -15q-314 0 -484.5 185.5t-170.5 539.5z" />
<glyph unicode="H" horiz-adv-x="1622" d="M72 0v174l153 62v962l-153 62v174l635 10v-184l-164 -62v-328h536v328l-164 62v174l635 10v-184l-153 -62v-962l153 -62v-174h-635v174l164 62v389h-536v-389l164 -62v-174h-635z" />
<glyph unicode="I" horiz-adv-x="788" d="M82 0v174l154 62v962l-154 62v174l625 10v-184l-154 -62v-962l154 -62v-174h-625z" />
<glyph unicode="J" horiz-adv-x="786" d="M-61 -313l26 211h98q181 0 181 196v1104l-154 62v174l625 10v-184l-154 -62v-981q0 -139 -22.5 -236.5t-75.5 -169t-144.5 -105.5t-224.5 -34q-29 0 -68 4t-63 8z" />
<glyph unicode="K" horiz-adv-x="1474" d="M72 0v174l153 62v966l-153 62v170l624 10v-180l-153 -62v-352h139l342 584l379 10v-180l-195 -58l-268 -446l381 -524l154 -62v-174h-625v174l123 62l-281 389h-149v-389l153 -62v-174h-624z" />
<glyph unicode="L" horiz-adv-x="1105" d="M61 0v174l154 62v962l-154 62v174l625 10v-184l-154 -62v-952h314l45 225h194v-471h-1024z" />
<glyph unicode="M" horiz-adv-x="1798" d="M72 0v174l153 62v962l-153 62v174l528 10l307 -682l322 672l491 10v-184l-147 -62v-962l153 -62v-174h-610v174l160 62v770l-55 -136l-232 -481l-221 -10l-236 485l-34 107v-735l157 -62v-174h-583z" />
<glyph unicode="N" horiz-adv-x="1611" d="M72 0v174l153 62v962l-153 62v174l491 10l553 -946v700l-149 62v174l583 10v-184l-153 -62v-1198h-342l-549 928v-692l160 -62v-174h-594z" />
<glyph unicode="O" horiz-adv-x="1546" d="M113 711q0 352 181 554.5t494 202.5q307 0 476.5 -191.5t169.5 -535.5q0 -345 -189 -556.5t-497 -211.5t-471.5 189t-163.5 549zM461 721q0 -254 71.5 -373t225.5 -119q161 0 244 117.5t83 384.5q0 250 -75.5 365.5t-231.5 115.5q-160 0 -238.5 -113t-78.5 -378z" />
<glyph unicode="P" horiz-adv-x="1275" d="M72 0v174l153 62v962l-153 62v174l471 10h194q234 0 366 -115t132 -315q0 -255 -150.5 -383.5t-433.5 -128.5h-108v-266l153 -62v-174h-624zM543 741h108q128 0 197.5 59.5t69.5 172.5q0 103 -54.5 164t-156.5 61h-164v-457z" />
<glyph unicode="Q" horiz-adv-x="1519" d="M113 711q0 350 186 553.5t504 203.5q313 0 482 -191t169 -536q0 -263 -113 -452t-313 -266q24 -15 74.5 -49.5t83.5 -55t77.5 -44.5t84 -36t75.5 -12q29 0 76.5 18t80.5 36l32 18q21 -30 57 -86t51 -78q-9 -6 -24 -15.5t-59.5 -34.5t-85 -44t-91.5 -34.5t-88 -15.5 q-61 0 -122 28t-140 81l-414 278q-284 19 -433.5 206t-149.5 528zM451 721q0 -247 79 -369.5t242 -122.5q174 0 259 123t85 379q0 247 -77.5 364t-245.5 117q-174 0 -258 -118t-84 -373z" />
<glyph unicode="R" horiz-adv-x="1382" d="M72 0v174l153 62v962l-153 62v174l471 10h155q256 0 394.5 -106t138.5 -312q0 -270 -232 -387q50 -59 86 -133l138 -281l139 -51v-174h-379l-172 379q-20 46 -31.5 69t-26.5 48.5t-26 35.5t-28.5 20t-37 12.5t-47.5 2.5h-71v-331l147 -62v-174h-618zM543 782h116 q122 0 189 56t67 159q0 89 -55 145t-149 56h-168v-416z" />
<glyph unicode="S" horiz-adv-x="1239" d="M123 1034q0 138 68.5 237.5t185 148t266.5 48.5q103 0 215.5 -20.5t173.5 -41.5l62 -20l-11 -372h-188l-51 174q-92 31 -180 31q-105 0 -161.5 -41t-56.5 -105q0 -38 23.5 -68t63.5 -51.5t92 -41t109.5 -39.5t114.5 -43.5t109 -58t92 -77t63.5 -105.5t23.5 -140 q0 -150 -73 -259t-197 -163t-283 -54q-103 0 -217 19.5t-177 39.5l-63 19v393h209l31 -172q9 -5 26 -12t69 -19t105 -12q104 0 176 44t72 122q0 38 -23.5 68t-63.5 51.5t-92 40.5t-109.5 39t-115 44t-109.5 59t-92 79.5t-63.5 110.5t-23.5 147z" />
<glyph unicode="T" horiz-adv-x="1228" d="M20 1004v440h1188v-440h-190l-51 194h-195v-962l195 -62v-174h-707v174l195 62v962h-195l-51 -194h-189z" />
<glyph unicode="U" horiz-adv-x="1615" d="M72 1260v174l628 10v-184l-159 -62v-645q0 -179 59.5 -253.5t208.5 -74.5q81 0 133 21t80.5 68.5t39.5 110.5t11 159v614l-160 62v174l631 10v-184l-153 -62v-614q0 -152 -31 -262.5t-100 -189.5t-183.5 -118t-277.5 -39q-306 0 -441 139t-135 439v645z" />
<glyph unicode="V" horiz-adv-x="1482" d="M10 1260v174l635 10v-184l-151 -60l188 -588l66 -252l65 242l203 596l-156 62v174l613 10v-184l-150 -62l-432 -1198h-328l-413 1202z" />
<glyph unicode="W" horiz-adv-x="2119" d="M10 1260v174l608 10v-184l-149 -62l176 -737l287 966l276 17l275 -981l196 735l-153 62v174l583 10v-184l-147 -62l-350 -1198h-291l-268 973l-49 -195l-236 -778h-283l-331 1200z" />
<glyph unicode="X" horiz-adv-x="1515" d="M20 0v174l127 51l414 500l-381 496l-119 39v174l615 10v-184l-103 -35l211 -281l201 273l-111 43v174l590 10v-184l-135 -41l-377 -478l400 -518l143 -49v-174h-635v174l94 41l-225 303l-229 -295l129 -49v-174h-609z" />
<glyph unicode="Y" horiz-adv-x="1366" d="M14 1260v174l580 10v-184l-105 -43l205 -441l217 438l-112 46v174l553 10v-184l-142 -56l-370 -702v-266l153 -62v-174h-624v174l153 62v264l-375 704z" />
<glyph unicode="Z" horiz-adv-x="1259" d="M61 0v215l727 983h-430l-51 -184h-194v430h1085v-232l-713 -966h467l45 205h195v-451h-1131z" />
<glyph unicode="[" horiz-adv-x="720" d="M137 -471v2048l512 -10v-211l-243 -23v-1562l243 -23v-209z" />
<glyph unicode="\" horiz-adv-x="1036" d="M14 1444h314l682 -1444h-312z" />
<glyph unicode="]" horiz-adv-x="720" d="M66 -250l245 23v1560l-245 23v211l512 10v-2048l-512 10v211z" />
<glyph unicode="^" horiz-adv-x="1218" d="M102 655l394 789h225l395 -789h-264l-248 502l-246 -502h-256z" />
<glyph unicode="_" horiz-adv-x="1015" d="M-4 -164h1024v-205h-1024v205z" />
<glyph unicode="`" horiz-adv-x="655" d="M49 1526l139 213l457 -365l-100 -149z" />
<glyph unicode="a" d="M82 301q0 176 126 257t367 81h144v113q0 149 -158 149q-46 0 -91 -7.5t-67 -15.5l-22 -8l-31 -129h-184l-14 303q28 9 74.5 22.5t164 36.5t205.5 23q234 0 332 -91.5t98 -313.5v-506l154 -37v-164l-410 -14l-37 133q-6 -6 -18 -16.5t-48.5 -37t-73.5 -46.5t-90 -36.5 t-102 -16.5q-150 0 -234.5 84t-84.5 237zM379 332q0 -59 31.5 -91t89.5 -32q31 0 64.5 12.5t60 29.5t48.5 34.5t34 30.5l12 12v137h-117q-119 0 -171 -31.5t-52 -101.5z" />
<glyph unicode="b" horiz-adv-x="1265" d="M10 1407v164l461 16v-569q140 108 293 108q204 0 312 -141t108 -401q0 -292 -151 -450.5t-443 -158.5q-100 0 -206.5 11t-163.5 22l-56 12v1346zM471 238q48 -17 152 -17q243 0 243 342q0 158 -47.5 238t-152.5 80q-55 0 -103.5 -23.5t-70.5 -46.5l-21 -23v-550z" />
<glyph unicode="c" horiz-adv-x="1075" d="M72 537q0 275 148 432t415 157q78 0 167.5 -18t139.5 -36l51 -17l-10 -336h-184l-29 145q-59 17 -141 17q-113 0 -176.5 -76.5t-63.5 -226.5q0 -169 65 -261t191 -92q41 0 78 6.5t72.5 22t54 25t53 31t39.5 24.5l102 -180q-28 -24 -60.5 -47t-90 -55.5t-133.5 -52 t-156 -19.5q-252 0 -392 147.5t-140 409.5z" />
<glyph unicode="d" horiz-adv-x="1306" d="M82 526q0 292 140.5 446t418.5 154q64 0 154 -20v260l-164 41v164l471 16v-1368l164 -41v-164l-437 -14l-18 109q-129 -129 -309 -129q-210 0 -315 143t-105 403zM399 543q0 -159 47.5 -238.5t149.5 -79.5q37 0 71 12t56 29t39 34.5t25 29.5l8 12v508q-67 31 -160 31 q-236 0 -236 -338z" />
<glyph unicode="e" horiz-adv-x="1155" d="M72 532q0 271 145.5 432.5t400.5 161.5q225 0 345 -128.5t120 -352.5q0 -35 -3 -73t-6 -62t-3 -25h-680q9 -122 75.5 -191t172.5 -69q76 0 162 24.5t134 48.5l48 24l88 -170q-8 -7 -23.5 -18.5t-65 -41t-101 -52.5t-128 -41.5t-149.5 -18.5q-261 0 -396.5 144t-135.5 408 zM395 676h371q0 93 -41.5 149t-126.5 56q-84 0 -137.5 -56t-65.5 -149z" />
<glyph unicode="f" horiz-adv-x="946" d="M82 881v174l184 30v93q0 200 114 317t327 117q98 0 188.5 -19t132.5 -38l41 -19l-6 -301h-184l-31 143q-49 8 -117 8q-158 0 -158 -174v-127h267l-6 -204h-261v-666l205 -51v-164h-676v164l164 51v666h-184z" />
<glyph unicode="g" horiz-adv-x="1249" d="M82 -225q0 49 22 92.5t54 70t63.5 46.5t53.5 28l22 8q-5 1 -13.5 3t-29.5 11.5t-37 23t-29.5 39.5t-13.5 59q0 64 107 231q-158 106 -158 320q0 137 65 233t174 141t252 45q136 0 242 -49l352 8v-163l-168 -29q0 -2 10 -27.5t17.5 -60.5t7.5 -74q0 -109 -36.5 -190.5 t-103.5 -131t-154.5 -74t-196.5 -24.5q-24 0 -48.5 2.5t-39.5 5.5t-17 3l-8 -138h303q196 0 303 -82t107 -235q0 -177 -145 -283t-429 -106q-125 0 -219 15t-165 49t-107.5 92t-36.5 141zM379 -174q0 -73 60.5 -98t195.5 -25q138 0 200 33t62 106q0 66 -48.5 91.5 t-156.5 25.5h-215q-4 -2 -10.5 -5.5t-23.5 -16t-30 -26.5t-23.5 -37t-10.5 -48zM430 721q0 -205 164 -205q94 0 134 49.5t40 155.5q0 98 -40 146t-124 48q-91 0 -132.5 -48t-41.5 -146z" />
<glyph unicode="h" horiz-adv-x="1372" d="M41 0v164l164 51v1151l-164 41v164l471 16v-600q63 52 153.5 95.5t190.5 43.5q155 0 238.5 -97t83.5 -271v-543l143 -51v-164h-557v164l106 49v496q0 163 -135 163q-32 0 -67 -11t-61.5 -27t-48.5 -32t-34 -27l-12 -11v-549l109 -51v-164h-580z" />
<glyph unicode="i" horiz-adv-x="747" d="M72 0v164l164 51v666l-164 51v164l471 10v-891l143 -51v-164h-614zM199 1444q0 84 51.5 134t124.5 50q172 0 172 -184q0 -86 -52 -136.5t-120 -50.5q-84 0 -130 48.5t-46 138.5z" />
<glyph unicode="j" horiz-adv-x="690" d="M-63 -487l24 200h107q90 0 129 50.5t39 152.5v965l-164 51v164l471 10v-1079q0 -137 -22 -232.5t-73.5 -164t-139 -100.5t-216.5 -32q-29 0 -68 4t-63 8zM199 1444q0 82 50.5 133t125.5 51q172 0 172 -184q0 -83 -50.5 -135t-121.5 -52q-84 0 -130 48.5t-46 138.5z" />
<glyph unicode="k" horiz-adv-x="1296" d="M41 0v164l164 51v1151l-164 41v164l471 16v-893h135l139 209l-90 29v164l529 10v-174l-144 -27l-190 -268l229 -424l156 -49v-164h-379l-254 500h-131v-285l113 -51v-164h-584z" />
<glyph unicode="l" horiz-adv-x="708" d="M41 0v164l164 51v1151l-164 41v164l473 16v-1372l184 -51v-164h-657z" />
<glyph unicode="m" horiz-adv-x="2033" d="M72 0v164l157 51v666l-155 51v164l428 10l14 -145q7 7 20 18t53.5 39.5t81 50t97 39.5t106.5 18q207 0 283 -176q20 20 49 43t79.5 56.5t115 55t127.5 21.5q158 0 236.5 -96t78.5 -272v-543l139 -51v-164h-555v164l109 51v487q0 86 -28 127t-91 41q-37 0 -74 -11 t-63.5 -26.5t-47.5 -31t-32 -26.5l-10 -11v-549l106 -51v-164h-520v164l107 51v487q0 87 -26.5 127.5t-90.5 40.5q-37 0 -74.5 -11t-64 -26.5t-48 -31t-31.5 -26.5l-11 -11v-549l108 -51v-164h-573z" />
<glyph unicode="n" horiz-adv-x="1402" d="M72 0v164l164 51v666l-164 51v164l434 10l14 -141q8 6 22 17t57.5 38t86.5 47.5t101.5 37.5t109.5 17q148 0 229.5 -97.5t81.5 -266.5v-543l144 -51v-164h-564v164l113 51v487q0 72 -38 118t-101 46q-36 0 -71.5 -12t-61 -29t-46 -34t-30.5 -29l-10 -12v-535l112 -51 v-164h-583z" />
<glyph unicode="o" horiz-adv-x="1212" d="M72 543q0 274 150 428.5t403 154.5q248 0 382 -144t134 -409q0 -275 -148 -434t-399 -159q-522 0 -522 563zM389 553q0 -169 51.5 -248.5t163.5 -79.5q113 0 166 78.5t53 259.5q0 160 -50.5 239t-158.5 79q-116 0 -170.5 -74.5t-54.5 -253.5z" />
<glyph unicode="p" horiz-adv-x="1306" d="M41 932v164l436 10l19 -115q6 5 16 14.5t43 32.5t66.5 41t82.5 32.5t95 14.5q209 0 317.5 -143.5t108.5 -398.5q0 -288 -137 -446t-402 -158q-86 0 -174 20v-260l195 -47v-164h-662v164l160 47v1141zM512 246q73 -31 160 -31q127 0 181 83.5t54 248.5q0 163 -48.5 248.5 t-156.5 85.5q-37 0 -70.5 -11.5t-54.5 -28t-36.5 -33.5t-22.5 -28l-6 -12v-522z" />
<glyph unicode="q" horiz-adv-x="1224" d="M72 522q0 285 152 444.5t442 159.5q100 0 206.5 -12t163.5 -24l56 -13v-1333l153 -51v-164h-655v164l194 51v346q-5 -4 -15 -11.5t-42 -26.5t-64.5 -33.5t-79.5 -26.5t-91 -12q-209 0 -314.5 144t-105.5 398zM389 543q0 -158 48.5 -238t154.5 -80q56 0 104 23t68 46 l20 23v557q-57 17 -159 17q-122 0 -179 -92.5t-57 -255.5z" />
<glyph unicode="r" horiz-adv-x="1005" d="M72 0v164l164 51v666l-164 51v164l430 10l18 -141q6 7 17 17.5t43.5 38.5t65 49t77 38.5t82.5 17.5q50 0 97.5 -9t69.5 -18l23 -9l-16 -394h-184l-31 174q-53 0 -108 -28.5t-84 -57.5l-29 -28v-541l205 -51v-164h-676z" />
<glyph unicode="s" horiz-adv-x="997" d="M72 776q0 92 35 162t95.5 109.5t133.5 59t158 19.5q82 0 177 -15t149 -31l54 -15l-8 -307h-174l-30 123q-60 20 -142 20q-67 0 -104 -27t-37 -77q0 -33 30 -58t78.5 -42t107 -34.5t116.5 -42t106.5 -57.5t78.5 -88t30 -127q0 -174 -128 -271t-343 -97q-87 0 -181 11 t-145 23l-51 11v333h184l17 -133q72 -20 172 -20q167 0 167 100q0 34 -30 59.5t-78.5 44t-106.5 37t-116 45t-106.5 61.5t-78.5 92.5t-30 131.5z" />
<glyph unicode="t" horiz-adv-x="892" d="M31 850v199l190 26v283l307 55v-338h287v-225h-287v-451q0 -101 23 -142.5t86 -41.5q36 0 84.5 16t77.5 31l73 -156q-170 -126 -348 -126q-86 0 -146.5 28.5t-94 83.5t-48 124.5t-14.5 162.5v471h-190z" />
<glyph unicode="u" horiz-adv-x="1370" d="M31 932v164l471 10v-707q0 -86 28.5 -124.5t96.5 -38.5q37 0 74.5 11.5t64.5 27.5t48.5 32t32.5 27l11 12v535l-164 51v164l471 10v-891l164 -41v-160l-432 -14l-20 143q-7 -7 -19 -18t-51 -39t-79 -49.5t-97.5 -39t-112.5 -17.5q-153 0 -238 97t-85 269v535z" />
<glyph unicode="v" horiz-adv-x="1226" d="M10 932v164l537 10v-174l-115 -21l186 -604l181 598l-119 27v164l537 10v-174l-117 -27l-330 -905h-338l-323 899z" />
<glyph unicode="w" horiz-adv-x="1794" d="M10 932v164l537 10v-174l-129 -25l135 -575l217 739l270 45l224 -784l120 569l-124 31v164l524 10v-174l-109 -25l-272 -907h-313l-162 522l-37 160l-51 -223l-150 -459h-311l-279 903z" />
<glyph unicode="x" horiz-adv-x="1191" d="M10 0v164l154 41l225 338l-248 362l-110 27v164l530 10v-174l-61 -12l106 -181l213 357l342 10v-174l-127 -27l-235 -352l231 -348l152 -41v-164h-557v164l63 22l-108 181l-222 -367h-348z" />
<glyph unicode="y" d="M10 932v164l547 10v-174l-115 -21l183 -573l174 567l-119 27v164l551 10v-174l-127 -27l-301 -839q-24 -66 -44.5 -116.5t-51.5 -111.5t-62 -105.5t-73.5 -89t-89.5 -72.5t-107.5 -45.5t-128.5 -17.5q-31 0 -81 4t-84 8l-34 5l29 219h133q47 0 88.5 20t68 45t53.5 66.5 t37.5 63.5t26.5 59l-364 901z" />
<glyph unicode="z" horiz-adv-x="1034" d="M82 0v188l520 693h-280l-31 -150h-185v375h861v-191l-512 -690h299l34 174h185v-399h-891z" />
<glyph unicode="{" horiz-adv-x="827" d="M61 502v205q108 0 151.5 55.5t43.5 157.5v288q0 198 92.5 288.5t280.5 90.5h137v-211q-146 0 -197 -43t-51 -166v-215q0 -142 -41.5 -225t-146.5 -123q188 -73 188 -291v-354q0 -123 51 -166t197 -43v-211h-137q-204 0 -288.5 100t-84.5 334v316q0 102 -43.5 157.5 t-151.5 55.5z" />
<glyph unicode="|" horiz-adv-x="569" d="M164 -471v2017h242v-2017h-242z" />
<glyph unicode="}" horiz-adv-x="837" d="M82 -250q146 0 196 43t50 166v354q0 217 190 291q-190 74 -190 289v274q0 123 -50 166t-196 43v211h137q190 0 281.5 -91t91.5 -288v-288q0 -102 43 -157.5t151 -55.5v-205q-108 0 -151 -55.5t-43 -157.5v-316q0 -233 -86 -333.5t-289 -100.5h-135v211z" />
<glyph unicode="~" horiz-adv-x="1282" d="M88 532q4 10 13 26t39.5 58t66 74t92.5 58t119 26q58 0 119 -21.5t103.5 -47t97.5 -47t104 -21.5q50 0 99 28.5t73 56.5l24 28l136 -103q-5 -10 -14 -26.5t-41 -59t-66.5 -75t-90 -59t-112.5 -26.5q-58 0 -121 21.5t-109.5 47.5t-105 47.5t-108.5 21.5q-31 0 -61.5 -11.5 t-53 -27.5t-40.5 -32.5t-27 -27.5l-9 -12z" />
<glyph unicode="&#xa1;" horiz-adv-x="690" d="M168 954q0 85 52.5 136t125.5 51q84 0 127 -48.5t43 -138.5q0 -84 -51.5 -134t-124.5 -50q-84 0 -128 48t-44 136zM188 -453l37 1033l246 10l39 -1043h-322z" />
<glyph unicode="&#xa2;" horiz-adv-x="1044" d="M78 723q0 209 97 346t282 176v199h221v-187q64 -5 132.5 -22.5t105.5 -32.5l36 -14l-10 -311h-174l-29 141q-59 16 -131 16q-229 0 -229 -272q0 -322 244 -322q31 0 61.5 5.5t52 11.5t49 18.5t40 19.5t37.5 22l30 18l100 -160q-27 -24 -62.5 -49.5t-108 -59.5t-144.5 -45 v-221h-221v225q-183 33 -281 164t-98 334z" />
<glyph unicode="&#xa3;" horiz-adv-x="1280" d="M123 0v174l102 41q60 24 78.5 67t18.5 142l-11 231h-188v191l174 28q-6 85 -6 170q0 200 107 312t329 112q116 0 224.5 -18t158.5 -36l51 -17v-332h-184l-41 152q-76 12 -174 12q-168 0 -168 -180q0 -86 4 -168h295v-226h-279q11 -132 11 -200q0 -38 -6 -72.5 t-15.5 -58.5t-20 -42.5t-19.5 -27t-15 -8.5h381l47 205h190v-451h-1044z" />
<glyph unicode="&#xa4;" horiz-adv-x="1277" d="M104 240l156 153q-45 95 -45 213q0 121 53 213l-162 164l152 164l164 -164q109 61 227 61q116 0 213 -51l158 156l151 -164l-151 -151q51 -94 51 -216q0 -125 -57 -227l160 -158l-154 -161l-162 159q-97 -57 -219 -57q-136 0 -227 55l-154 -153zM465 610q0 -223 178 -223 q180 0 180 223q0 215 -180 215q-178 0 -178 -215z" />
<glyph unicode="&#xa5;" horiz-adv-x="1376" d="M20 1260v174l578 10v-184l-104 -43l206 -429l218 426l-115 46v174l553 10v-184l-144 -56l-211 -379h195v-184h-1024v184h193l-209 377zM172 334v184h1024v-184h-352v-109l153 -51v-174h-624v174l153 51v109h-354z" />
<glyph unicode="&#xa6;" horiz-adv-x="608" d="M178 297h242v-840h-242v840zM178 748v819h242v-819h-242z" />
<glyph unicode="&#xa7;" horiz-adv-x="1093" d="M127 715q0 201 143 303q-61 97 -61 219q0 165 116 270t296 105q80 0 159.5 -16t118.5 -32l39 -16l-8 -338h-162l-35 176q-51 13 -96 13q-75 0 -117.5 -38.5t-42.5 -100.5q0 -50 28.5 -94.5t73.5 -81t100 -73t110 -78.5t100 -89t73.5 -112.5t28.5 -141.5q0 -103 -41 -179 t-102 -120q61 -94 61 -209q0 -173 -114.5 -279t-296.5 -106q-76 0 -155.5 14.5t-120.5 29.5l-42 15l4 350h168l29 -180q43 -12 104 -12q73 0 115.5 37t42.5 100q0 48 -28.5 91.5t-74 79t-100.5 71.5t-110 77.5t-100.5 88.5t-74 113t-28.5 143zM385 750q0 -36 18 -69t53 -63 t70 -54.5t86.5 -59.5t85.5 -62q37 46 37 115q0 36 -18 68.5t-53.5 62.5t-71 54.5t-87 58.5t-85.5 61q-35 -50 -35 -112z" />
<glyph unicode="&#xa8;" horiz-adv-x="1114" d="M184 1458q0 72 44.5 116t107.5 44q71 0 109 -42t38 -118q0 -74 -44 -117t-107 -43q-72 0 -110 41.5t-38 118.5zM631 1458q0 72 45 116t106 44q72 0 110 -42t38 -118q0 -73 -44.5 -116.5t-107.5 -43.5q-72 0 -109.5 41.5t-37.5 118.5z" />
<glyph unicode="&#xa9;" horiz-adv-x="1685" d="M76 707q0 163 58 305t159.5 243.5t243.5 159.5t305 58q218 0 392.5 -94t274 -265t99.5 -387t-104.5 -392t-284.5 -275t-398 -99t-387.5 94t-263.5 264t-94 388zM285 717q0 -252 149 -407.5t397 -155.5q250 0 409 156.5t159 406.5q0 248 -159 405.5t-409 157.5 q-247 0 -396.5 -156t-149.5 -407zM459 700q0 198 105 315.5t294 117.5q56 0 122 -15.5t104 -31.5l38 -15l-6 -229h-141l-23 112q-51 13 -98 13q-170 0 -170 -240q0 -246 178 -246q57 0 117 26t92 52l76 -117q-156 -131 -311 -131q-175 0 -276 101.5t-101 287.5z" />
<glyph unicode="&#xaa;" horiz-adv-x="999" d="M92 883q0 125 88.5 183t261.5 58h95v74q0 44 -27.5 69t-75.5 25q-31 0 -63 -4.5t-48 -9.5l-16 -4l-18 -88h-146l-12 223q195 59 334 59q167 0 235 -68t68 -224v-345l109 -24v-135l-285 -13l-29 103q-4 -5 -12 -13t-33 -28t-51 -35.5t-65.5 -28t-77.5 -12.5 q-111 0 -171.5 61.5t-60.5 176.5zM113 276v205h764v-205h-764zM313 899q0 -34 22.5 -54t59.5 -20q33 0 68.5 17.5t54.5 35.5l19 17v96h-80q-75 0 -109.5 -21.5t-34.5 -70.5z" />
<glyph unicode="&#xab;" horiz-adv-x="1226" d="M113 463v158l311 362l170 -113l-223 -327l223 -328l-170 -115zM625 463v158l319 362l170 -113l-231 -327l231 -328l-170 -115z" />
<glyph unicode="&#xac;" horiz-adv-x="1314" d="M123 532v236h1079v-604h-260v368h-819z" />
<glyph unicode="&#xad;" horiz-adv-x="808" d="M113 430v256h583v-256h-583z" />
<glyph unicode="&#xae;" horiz-adv-x="1480" d="M92 920q0 184 84 332.5t232.5 232.5t332.5 84q182 0 329.5 -78t233 -222t85.5 -327t-89.5 -332.5t-242.5 -233t-338 -83.5q-277 0 -452 174.5t-175 452.5zM293 932q0 -206 118 -332.5t320 -126.5q204 0 331.5 127.5t127.5 331.5t-127.5 330.5t-331.5 126.5 q-202 0 -320 -125.5t-118 -331.5zM455 618v93l69 24v406l-69 28v86l293 5q114 2 182.5 -47t68.5 -140q0 -120 -108 -172q17 -10 35 -45l63 -121l68 -24v-93h-185l-84 187q-17 38 -28.5 49.5t-30.5 11.5h-47v-131l68 -24v-93h-295zM682 975h53q42 0 73.5 22.5t31.5 59.5 q0 38 -23.5 60t-66.5 22h-68v-164z" />
<glyph unicode="&#xaf;" horiz-adv-x="634" d="M10 1315v215h615v-215h-615z" />
<glyph unicode="&#xb0;" horiz-adv-x="872" d="M92 1188q0 147 96 238.5t248 91.5q153 0 248.5 -87t95.5 -233q0 -155 -95.5 -247.5t-248.5 -92.5q-154 0 -249 88t-95 242zM297 1196q0 -74 36 -115t103 -41t103 41t36 115q0 66 -38 102.5t-101 36.5t-101 -36.5t-38 -102.5z" />
<glyph unicode="&#xb1;" horiz-adv-x="1273" d="M106 -74v234h1061v-234h-1061zM106 590v239h396v301h272v-301h393v-239h-393v-309h-272v309h-396z" />
<glyph unicode="&#xb2;" horiz-adv-x="827" d="M68 573v205q16 12 47 36q198 151 256 208q90 89 90 164q0 80 -105 80q-22 0 -44 -4t-33 -8l-11 -3l-14 -108h-174l-6 270q158 51 303 51q168 0 265 -60t97 -185q0 -61 -17.5 -111t-61 -102.5t-97 -99.5t-145.5 -118h330v-215h-680z" />
<glyph unicode="&#xb3;" horiz-adv-x="808" d="M35 635l55 172q14 -6 38.5 -15t89 -24.5t116.5 -15.5q64 0 101.5 30t37.5 66q0 92 -149 92h-111v154h113q139 0 139 98q0 82 -113 82q-26 0 -53 -3t-41 -6l-14 -3l-11 -86h-167l-7 241q177 47 318 47q166 0 255 -58.5t89 -168.5q0 -80 -45 -132t-121 -73 q77 -14 131.5 -68t54.5 -130q0 -95 -54.5 -159t-139.5 -91t-195 -27q-71 0 -150.5 19.5t-123.5 39.5z" />
<glyph unicode="&#xb4;" horiz-adv-x="595" d="M0 1378l100 -149l496 301l-139 213z" />
<glyph unicode="&#xb5;" horiz-adv-x="1349" d="M35 926v164l452 16v-715q0 -151 119 -151q59 0 120 28t92 56l32 28v533l-152 41v164l453 16v-891l156 -41v-160l-416 -14l-21 145q-7 -7 -19 -18t-48.5 -39.5t-71.5 -50t-82 -39.5t-86 -18q-41 0 -76 12v-473h-301v1366z" />
<glyph unicode="&#xb6;" horiz-adv-x="1476" d="M102 1006q0 190 123.5 314t337.5 124h379l422 -17v-163l-164 -41v-1571h-258v1571h-215v-1571h-412v170l168 45v692q-163 17 -272 142.5t-109 304.5z" />
<glyph unicode="&#xb7;" horiz-adv-x="612" d="M125 627q0 91 51.5 141.5t132.5 50.5q176 0 176 -192q0 -91 -50.5 -141t-131.5 -50q-178 0 -178 191z" />
<glyph unicode="&#xb8;" horiz-adv-x="882" d="M195 -412l63 113q82 -43 160 -43q48 0 75 21.5t27 56.5q0 43 -45.5 65.5t-122.5 22.5v176h174v-88q81 -15 128.5 -63t47.5 -119q0 -92 -71.5 -149.5t-186.5 -57.5q-61 0 -123 16.5t-94 32.5z" />
<glyph unicode="&#xb9;" horiz-adv-x="804" d="M31 1241l323 203h224v-688h186v-183h-643v183h196v428l-186 -113z" />
<glyph unicode="&#xba;" horiz-adv-x="1032" d="M92 1044q0 193 117.5 308.5t300.5 115.5q182 0 285.5 -104t103.5 -291q0 -189 -115.5 -308.5t-298.5 -119.5q-184 0 -288.5 101t-104.5 298zM109 276v205h774v-205h-774zM348 1053q0 -107 37.5 -163t110.5 -56q147 0 147 231q0 215 -143 215q-152 0 -152 -227z" />
<glyph unicode="&#xbb;" horiz-adv-x="1226" d="M113 215l231 328l-231 327l170 113l319 -362v-158l-319 -363zM633 215l223 328l-223 327l170 113l311 -362v-158l-311 -363z" />
<glyph unicode="&#xbc;" horiz-adv-x="2195" d="M92 1241l324 203h223v-688h164v-183h-621v183h197v428l-186 -113zM522 0l836 1444h297l-836 -1444h-297zM1266 330l403 551l295 -35v-498h119v-190h-119v-158h-260v158h-410zM1509 348h195v260z" />
<glyph unicode="&#xbd;" horiz-adv-x="2201" d="M92 1241l324 203h223v-688h164v-183h-621v183h197v428l-186 -113zM524 0l836 1444h297l-836 -1444h-297zM1399 0v205q217 168 257 202q109 95 130 163q6 22 6 44q0 78 -106 78q-22 0 -44 -3.5t-34 -6.5l-11 -4l-12 -109h-174l-6 271q156 51 301 51q170 0 267.5 -60.5 t97.5 -185.5q0 -61 -17.5 -111t-61.5 -102.5t-97 -98.5t-146 -118h330v-215h-680z" />
<glyph unicode="&#xbe;" horiz-adv-x="2158" d="M82 616l55 172q14 -6 38 -15t88 -23.5t116 -14.5q54 0 97.5 25t43.5 71q0 93 -151 93h-109v151h113q137 0 137 103q0 37 -28 58t-83 21q-26 0 -53.5 -3.5t-41.5 -7.5l-15 -3l-10 -84h-166l-9 240q179 47 320 47q166 0 254 -58t88 -167q0 -81 -45 -133.5t-121 -73.5 q76 -13 132 -68t56 -131q0 -94 -55 -157t-140 -90t-194 -27q-72 0 -151.5 18.5t-122.5 37.5zM487 0l836 1444h297l-836 -1444h-297zM1231 330l401 551l295 -35v-498h119v-190h-119v-158h-260v158h-407zM1468 348h199v270z" />
<glyph unicode="&#xbf;" horiz-adv-x="944" d="M102 -143q0 64 20.5 123t53 105t71.5 88t78.5 79.5t72 73t53 74.5t20.5 77l-4 119l270 12q19 -132 19 -200q0 -55 -35.5 -108.5t-86 -98t-101 -88.5t-86 -95.5t-35.5 -103.5q0 -135 184 -135q38 0 83.5 5.5t72.5 11.5l26 5l39 -213q-172 -49 -305 -49q-82 0 -151.5 16.5 t-129.5 51.5t-94.5 99t-34.5 151zM410 954q0 86 51.5 136.5t124.5 50.5q84 0 128 -48.5t44 -138.5q0 -84 -51.5 -134t-124.5 -50q-84 0 -128 48t-44 136z" />
<glyph unicode="&#xc0;" horiz-adv-x="1531" d="M10 0v174l150 57l450 1207l328 6l440 -1213l144 -57v-174h-652v174l154 55l-49 150h-455l-51 -148l160 -57v-174h-619zM502 1735l119 223l440 -289l-94 -164zM592 598h315l-153 485z" />
<glyph unicode="&#xc1;" horiz-adv-x="1531" d="M10 0v174l150 57l450 1207l328 6l440 -1213l144 -57v-174h-652v174l154 55l-49 150h-455l-51 -148l160 -57v-174h-619zM592 598h315l-153 485zM627 1669l440 289l119 -223l-465 -230z" />
<glyph unicode="&#xc2;" horiz-adv-x="1552" d="M10 0v174l150 57l450 1207l328 6l440 -1213l144 -57v-174h-652v174l154 55l-49 150h-455l-51 -148l160 -57v-174h-619zM369 1655l313 268l182 16l332 -284l-98 -135l-310 200l-321 -200zM592 598h315l-153 485z" />
<glyph unicode="&#xc3;" horiz-adv-x="1552" d="M10 0v174l150 57l450 1207l328 6l440 -1213l144 -57v-174h-652v174l154 55l-49 150h-455l-51 -148l160 -57v-174h-619zM369 1671q4 9 10.5 24t30.5 54t51.5 68.5t71.5 54t92 24.5q60 0 123.5 -23.5t122.5 -47t110 -23.5q36 0 71 21.5t52 42.5l18 22l113 -86 q-4 -9 -12.5 -23t-36 -51t-57.5 -65t-76.5 -51t-94.5 -23q-74 0 -179.5 40t-164.5 40q-38 0 -75 -19.5t-55 -39.5l-17 -19zM592 598h315l-153 485z" />
<glyph unicode="&#xc4;" horiz-adv-x="1531" d="M10 0v174l150 57l450 1207l328 6l440 -1213l144 -57v-174h-652v174l154 55l-49 150h-455l-51 -148l160 -57v-174h-619zM463 1735q0 72 44 115.5t107 43.5q71 0 109.5 -41.5t38.5 -117.5q0 -73 -44.5 -116.5t-107.5 -43.5q-72 0 -109.5 41.5t-37.5 118.5zM592 598h315 l-153 485zM909 1735q0 72 45 115.5t107 43.5q72 0 109.5 -41.5t37.5 -117.5q0 -74 -44 -117t-107 -43q-72 0 -110 41.5t-38 118.5z" />
<glyph unicode="&#xc5;" horiz-adv-x="1531" d="M10 0v174l150 57l450 1207h2q-100 73 -100 204q0 123 83 198t191 75t190.5 -70t82.5 -190q0 -72 -32 -130t-85 -93l436 -1201l144 -57v-174h-652v174l154 55l-49 150h-455l-51 -148l160 -57v-174h-619zM592 598h315l-153 485zM686 1649q0 -58 26 -87.5t74 -29.5 q43 0 71 31.5t28 87.5q0 57 -26 86.5t-73 29.5q-44 0 -72 -30.5t-28 -87.5z" />
<glyph unicode="&#xc6;" horiz-adv-x="1988" d="M10 0v174l172 62l469 962l-174 62v174l391 10h994v-400h-191l-51 154h-332v-338h414v-225h-414v-389h363l47 168h188v-414h-1067v174l152 62v157h-396l-79 -166l125 -53v-174h-611zM672 614h299v584h-29z" />
<glyph unicode="&#xc7;" horiz-adv-x="1366" d="M113 700q0 358 186.5 563t503.5 205q110 0 229.5 -24t183.5 -48l64 -24l-10 -389h-201l-47 197q-96 32 -229 32q-164 0 -251 -124.5t-87 -376.5q0 -471 348 -471q57 0 118.5 14.5t107.5 35.5t84.5 42.5t58.5 35.5l20 15l113 -184q-7 -7 -20 -19t-56 -44t-89.5 -59 t-118 -54.5t-144.5 -38.5v-74q81 -16 127.5 -63t46.5 -121q0 -90 -73.5 -147.5t-184.5 -57.5q-62 0 -126 17.5t-97 34.5l-33 17l65 115q86 -47 168 -47q43 0 68.5 21t25.5 55q0 43 -45.5 65.5t-122.5 22.5v158q-281 19 -432 202.5t-151 517.5z" />
<glyph unicode="&#xc8;" horiz-adv-x="1273" d="M92 0v174l154 62v962l-154 62v174l471 10h574v-395h-185l-51 149h-338v-338h414v-225h-414v-389h367l47 168h184v-414h-1069zM326 1735l118 223l441 -289l-94 -164z" />
<glyph unicode="&#xc9;" horiz-adv-x="1273" d="M92 0v174l154 62v962l-154 62v174l471 10h574v-395h-185l-51 149h-338v-338h414v-225h-414v-389h367l47 168h184v-414h-1069zM451 1669l440 289l119 -223l-465 -230z" />
<glyph unicode="&#xca;" horiz-adv-x="1273" d="M92 0v174l154 62v962l-154 62v174l471 10h574v-395h-185l-51 149h-338v-338h414v-225h-414v-389h367l47 168h184v-414h-1069zM260 1655l313 268l183 16l331 -284l-98 -135l-309 200l-322 -200z" />
<glyph unicode="&#xcb;" horiz-adv-x="1273" d="M92 0v174l154 62v962l-154 62v174l471 10h574v-395h-185l-51 149h-338v-338h414v-225h-414v-389h367l47 168h184v-414h-1069zM287 1737q0 72 44 115.5t107 43.5q71 0 109.5 -41.5t38.5 -117.5q0 -73 -44.5 -116.5t-107.5 -43.5q-72 0 -109.5 41.5t-37.5 118.5zM733 1737 q0 72 45 115.5t107 43.5q72 0 109.5 -41.5t37.5 -117.5q0 -74 -44 -117t-107 -43q-72 0 -110 41.5t-38 118.5z" />
<glyph unicode="&#xcc;" horiz-adv-x="788" d="M39 1735l119 223l440 -289l-94 -164zM82 0v174l154 62v962l-154 62v174l625 10v-184l-154 -62v-962l154 -62v-174h-625z" />
<glyph unicode="&#xcd;" horiz-adv-x="788" d="M82 0v174l154 62v962l-154 62v174l625 10v-184l-154 -62v-962l154 -62v-174h-625zM178 1669l440 289l119 -223l-465 -230z" />
<glyph unicode="&#xce;" horiz-adv-x="788" d="M-31 1655l314 268l182 16l332 -284l-99 -135l-309 200l-321 -200zM82 0v174l154 62v962l-154 62v174l625 10v-184l-154 -62v-962l154 -62v-174h-625z" />
<glyph unicode="&#xcf;" horiz-adv-x="827" d="M53 1735q0 72 44.5 115.5t107.5 43.5q71 0 109 -41.5t38 -117.5q0 -74 -44 -117t-107 -43q-72 0 -110 41.5t-38 118.5zM111 0v174l153 62v962l-153 62v174l624 10v-184l-153 -62v-962l153 -62v-174h-624zM479 1735q0 72 45 115.5t107 43.5q72 0 109.5 -41.5t37.5 -117.5 q0 -74 -44 -117t-107 -43q-72 0 -110 41.5t-38 118.5z" />
<glyph unicode="&#xd0;" horiz-adv-x="1517" d="M82 0v174l154 62v403h-140v225h140v334l-154 62v174l471 10h203q310 0 479.5 -180t169.5 -523q0 -344 -184 -542.5t-496 -198.5h-643zM551 246h178q79 0 138 24.5t104 79t68.5 150.5t23.5 231q0 249 -81 358t-237 109h-194v-334h248v-225h-248v-393z" />
<glyph unicode="&#xd1;" horiz-adv-x="1607" d="M72 0v174l153 62v962l-153 62v174l491 10l553 -946v700l-149 62v174l583 10v-184l-153 -62v-1198h-342l-549 928v-692l160 -62v-174h-594zM373 1671q4 9 10.5 24t30.5 54t51.5 68.5t71.5 54t92 24.5q60 0 123.5 -23.5t122.5 -47t110 -23.5q36 0 71 21.5t52 42.5l18 22 l113 -86q-4 -9 -12.5 -23t-36 -51t-57 -65t-76 -51t-94.5 -23q-74 0 -180 40t-165 40q-38 0 -75 -19.5t-55 -39.5l-17 -19z" />
<glyph unicode="&#xd2;" horiz-adv-x="1546" d="M113 711q0 352 181 554.5t494 202.5q307 0 476.5 -191.5t169.5 -535.5q0 -345 -189 -556.5t-497 -211.5t-471.5 189t-163.5 549zM428 1735l119 223l440 -289l-94 -164zM461 721q0 -254 71.5 -373t225.5 -119q161 0 244 117.5t83 384.5q0 250 -75.5 365.5t-231.5 115.5 q-160 0 -238.5 -113t-78.5 -378z" />
<glyph unicode="&#xd3;" horiz-adv-x="1546" d="M113 711q0 352 181 554.5t494 202.5q307 0 476.5 -191.5t169.5 -535.5q0 -345 -189 -556.5t-497 -211.5t-471.5 189t-163.5 549zM461 721q0 -254 71.5 -373t225.5 -119q161 0 244 117.5t83 384.5q0 250 -75.5 365.5t-231.5 115.5q-160 0 -238.5 -113t-78.5 -378z M543 1669l440 289l119 -223l-465 -230z" />
<glyph unicode="&#xd4;" horiz-adv-x="1546" d="M113 711q0 352 181 554.5t494 202.5q307 0 476.5 -191.5t169.5 -535.5q0 -345 -189 -556.5t-497 -211.5t-471.5 189t-163.5 549zM367 1655l313 268l182 16l332 -284l-98 -135l-310 200l-321 -200zM461 721q0 -254 71.5 -373t225.5 -119q161 0 244 117.5t83 384.5 q0 250 -75.5 365.5t-231.5 115.5q-160 0 -238.5 -113t-78.5 -378z" />
<glyph unicode="&#xd5;" horiz-adv-x="1546" d="M113 711q0 352 181 554.5t494 202.5q307 0 476.5 -191.5t169.5 -535.5q0 -345 -189 -556.5t-497 -211.5t-471.5 189t-163.5 549zM336 1671q4 9 10.5 24t30.5 54t51.5 68.5t71.5 54t92 24.5q60 0 123.5 -23.5t122.5 -47t110 -23.5q22 0 45 9t39.5 21.5t30 25t20.5 21.5 l7 9l112 -86q-4 -9 -12.5 -23t-36 -51t-57 -65t-76 -51t-94.5 -23q-74 0 -179.5 40t-164.5 40q-38 0 -75 -19.5t-55 -39.5l-18 -19zM461 721q0 -254 71.5 -373t225.5 -119q161 0 244 117.5t83 384.5q0 250 -75.5 365.5t-231.5 115.5q-160 0 -238.5 -113t-78.5 -378z" />
<glyph unicode="&#xd6;" horiz-adv-x="1546" d="M113 711q0 352 181 554.5t494 202.5q307 0 476.5 -191.5t169.5 -535.5q0 -345 -189 -556.5t-497 -211.5t-471.5 189t-163.5 549zM397 1735q0 72 44.5 115.5t107.5 43.5q71 0 109 -41.5t38 -117.5q0 -74 -44 -117t-107 -43q-72 0 -110 41.5t-38 118.5zM461 721 q0 -254 71.5 -373t225.5 -119q161 0 244 117.5t83 384.5q0 250 -75.5 365.5t-231.5 115.5q-160 0 -238.5 -113t-78.5 -378zM844 1735q0 72 44.5 115.5t106.5 43.5q73 0 110.5 -41.5t37.5 -117.5q0 -73 -44.5 -116.5t-107.5 -43.5q-72 0 -109.5 41.5t-37.5 118.5z" />
<glyph unicode="&#xd7;" horiz-adv-x="1255" d="M109 207l346 346l-346 346l172 174l346 -348l348 348l172 -174l-346 -346l346 -346l-172 -174l-348 348l-346 -348z" />
<glyph unicode="&#xd8;" horiz-adv-x="1566" d="M123 711q0 352 182 554.5t494 202.5q159 0 284 -55l127 211l183 -104l-138 -224q189 -192 189 -555q0 -345 -189 -555.5t-497 -210.5q-156 0 -277 50l-151 -250l-183 104l160 262q-184 187 -184 570zM467 743q0 -176 43 -270q83 138 239.5 395t188.5 310q-64 34 -150 34 q-158 0 -239.5 -110.5t-81.5 -358.5zM627 264q59 -35 141 -35q334 0 334 502q0 146 -45 238z" />
<glyph unicode="&#xd9;" horiz-adv-x="1615" d="M72 1260v174l628 10v-184l-159 -62v-645q0 -179 59.5 -253.5t208.5 -74.5q81 0 133 21t80.5 68.5t39.5 110.5t11 159v614l-160 62v174l631 10v-184l-153 -62v-614q0 -152 -31 -262.5t-100 -189.5t-183.5 -118t-277.5 -39q-306 0 -441 139t-135 439v645zM449 1735l118 223 l441 -289l-95 -164z" />
<glyph unicode="&#xda;" horiz-adv-x="1615" d="M72 1260v174l628 10v-184l-159 -62v-645q0 -179 59.5 -253.5t208.5 -74.5q81 0 133 21t80.5 68.5t39.5 110.5t11 159v614l-160 62v174l631 10v-184l-153 -62v-614q0 -152 -31 -262.5t-100 -189.5t-183.5 -118t-277.5 -39q-306 0 -441 139t-135 439v645zM584 1669l440 289 l119 -223l-465 -230z" />
<glyph unicode="&#xdb;" horiz-adv-x="1615" d="M72 1260v174l628 10v-184l-159 -62v-645q0 -179 59.5 -253.5t208.5 -74.5q81 0 133 21t80.5 68.5t39.5 110.5t11 159v614l-160 62v174l631 10v-184l-153 -62v-614q0 -152 -31 -262.5t-100 -189.5t-183.5 -118t-277.5 -39q-306 0 -441 139t-135 439v645zM389 1655l313 268 l183 16l332 -284l-99 -135l-309 200l-322 -200z" />
<glyph unicode="&#xdc;" horiz-adv-x="1615" d="M72 1260v174l628 10v-184l-159 -62v-645q0 -179 59.5 -253.5t208.5 -74.5q81 0 133 21t80.5 68.5t39.5 110.5t11 159v614l-160 62v174l631 10v-184l-153 -62v-614q0 -152 -31 -262.5t-100 -189.5t-183.5 -118t-277.5 -39q-306 0 -441 139t-135 439v645zM436 1735 q0 72 44.5 115.5t107.5 43.5q71 0 109 -41.5t38 -117.5q0 -74 -44 -117t-107 -43q-72 0 -110 41.5t-38 118.5zM883 1735q0 72 44.5 115.5t106.5 43.5q73 0 110.5 -41.5t37.5 -117.5q0 -73 -44.5 -116.5t-107.5 -43.5q-72 0 -109.5 41.5t-37.5 118.5z" />
<glyph unicode="&#xdd;" horiz-adv-x="1366" d="M14 1260v174l580 10v-184l-105 -43l205 -441l217 438l-112 46v174l553 10v-184l-142 -56l-370 -702v-266l153 -62v-174h-624v174l153 62v264l-375 704zM532 1669l441 289l119 -223l-465 -230z" />
<glyph unicode="&#xde;" horiz-adv-x="1288" d="M72 0v174l153 62v962l-153 62v174l645 10v-184l-174 -62v-61h202q233 0 362.5 -98t129.5 -281q0 -220 -154.5 -325t-429.5 -105h-110v-92l174 -62v-174h-645zM543 547h131q118 0 184 47.5t66 142.5q0 83 -58 128.5t-157 45.5h-166v-364z" />
<glyph unicode="&#xdf;" horiz-adv-x="1542" d="M72 860v178l204 31v98q0 201 137 323t361 122q247 0 381.5 -93t134.5 -253q0 -67 -24 -122.5t-58 -92.5t-67.5 -69t-57.5 -68t-24 -74t26 -68t68 -51.5t92.5 -42.5t100.5 -48t92 -61.5t68 -90t26 -126.5q0 -167 -125.5 -269.5t-323.5 -102.5q-73 0 -160.5 11t-138.5 23 l-51 11v329h185l20 -137q55 -22 135 -22q72 0 110 29t38 81q0 36 -26 64.5t-68 49.5t-92.5 42.5t-100.5 49.5t-92 64t-68 94t-26 132q0 66 25 118.5t60 86.5t70.5 64t60.5 68.5t25 84.5q0 77 -63 120t-148 43q-93 0 -145.5 -54t-52.5 -150v-1182h-467v164l163 51v645h-204z " />
<glyph unicode="&#xe0;" d="M82 301q0 176 126 257t367 81h144v113q0 149 -158 149q-46 0 -91 -7.5t-67 -15.5l-22 -8l-31 -129h-184l-14 303q28 9 74.5 22.5t164 36.5t205.5 23q234 0 332 -91.5t98 -313.5v-506l154 -37v-164l-410 -14l-37 133q-6 -6 -18 -16.5t-48.5 -37t-73.5 -46.5t-90 -36.5 t-102 -16.5q-150 0 -234.5 84t-84.5 237zM227 1526l140 213l456 -365l-100 -149zM379 332q0 -59 31.5 -91t89.5 -32q31 0 64.5 12.5t60 29.5t48.5 34.5t34 30.5l12 12v137h-117q-119 0 -171 -31.5t-52 -101.5z" />
<glyph unicode="&#xe1;" d="M82 301q0 176 126 257t367 81h144v113q0 149 -158 149q-46 0 -91 -7.5t-67 -15.5l-22 -8l-31 -129h-184l-14 303q28 9 74.5 22.5t164 36.5t205.5 23q234 0 332 -91.5t98 -313.5v-506l154 -37v-164l-410 -14l-37 133q-6 -6 -18 -16.5t-48.5 -37t-73.5 -46.5t-90 -36.5 t-102 -16.5q-150 0 -234.5 84t-84.5 237zM297 1378l100 -149l496 301l-139 213zM379 332q0 -59 31.5 -91t89.5 -32q31 0 64.5 12.5t60 29.5t48.5 34.5t34 30.5l12 12v137h-117q-119 0 -171 -31.5t-52 -101.5z" />
<glyph unicode="&#xe2;" d="M82 301q0 176 126 257t367 81h144v113q0 149 -158 149q-46 0 -91 -7.5t-67 -15.5l-22 -8l-31 -129h-184l-14 303q28 9 74.5 22.5t164 36.5t205.5 23q234 0 332 -91.5t98 -313.5v-506l154 -37v-164l-410 -14l-37 133q-6 -6 -18 -16.5t-48.5 -37t-73.5 -46.5t-90 -36.5 t-102 -16.5q-150 0 -234.5 84t-84.5 237zM137 1360l336 313l182 17l359 -330l-99 -135l-335 245l-344 -245zM379 332q0 -59 31.5 -91t89.5 -32q31 0 64.5 12.5t60 29.5t48.5 34.5t34 30.5l12 12v137h-117q-119 0 -171 -31.5t-52 -101.5z" />
<glyph unicode="&#xe3;" d="M82 301q0 176 126 257t367 81h144v113q0 149 -158 149q-46 0 -91 -7.5t-67 -15.5l-22 -8l-31 -129h-184l-14 303q28 9 74.5 22.5t164 36.5t205.5 23q234 0 332 -91.5t98 -313.5v-506l154 -37v-164l-410 -14l-37 133q-6 -6 -18 -16.5t-48.5 -37t-73.5 -46.5t-90 -36.5 t-102 -16.5q-150 0 -234.5 84t-84.5 237zM141 1384q4 9 10.5 24.5t30.5 54.5t51.5 68.5t71.5 54t92 24.5q60 0 119.5 -23.5t114.5 -47t106 -23.5q22 0 45 9t39.5 21.5t30 25t20.5 21.5l7 9l108 -95q-4 -9 -10.5 -24t-31 -53.5t-52 -68t-71.5 -53.5t-91 -24 q-60 0 -120.5 22.5t-116.5 45t-107 22.5q-38 0 -75.5 -21t-55.5 -42l-18 -21zM379 332q0 -59 31.5 -91t89.5 -32q31 0 64.5 12.5t60 29.5t48.5 34.5t34 30.5l12 12v137h-117q-119 0 -171 -31.5t-52 -101.5z" />
<glyph unicode="&#xe4;" d="M82 301q0 176 126 257t367 81h144v113q0 149 -158 149q-46 0 -91 -7.5t-67 -15.5l-22 -8l-31 -129h-184l-14 303q28 9 74.5 22.5t164 36.5t205.5 23q234 0 332 -91.5t98 -313.5v-506l154 -37v-164l-410 -14l-37 133q-6 -6 -18 -16.5t-48.5 -37t-73.5 -46.5t-90 -36.5 t-102 -16.5q-150 0 -234.5 84t-84.5 237zM213 1430q0 72 44.5 115.5t107.5 43.5q71 0 109 -41.5t38 -117.5q0 -73 -44.5 -116.5t-107.5 -43.5q-72 0 -109.5 41.5t-37.5 118.5zM379 332q0 -59 31.5 -91t89.5 -32q31 0 64.5 12.5t60 29.5t48.5 34.5t34 30.5l12 12v137h-117 q-119 0 -171 -31.5t-52 -101.5zM659 1430q0 72 45 115.5t107 43.5q72 0 109.5 -41.5t37.5 -117.5q0 -74 -44 -117t-107 -43q-72 0 -110 41.5t-38 118.5z" />
<glyph unicode="&#xe5;" d="M82 301q0 176 126 257t367 81h144v113q0 149 -158 149q-46 0 -91 -7.5t-67 -15.5l-22 -8l-31 -129h-184l-14 303q28 9 74.5 22.5t164 36.5t205.5 23q234 0 332 -91.5t98 -313.5v-506l154 -37v-164l-410 -14l-37 133q-6 -6 -18 -16.5t-48.5 -37t-73.5 -46.5t-90 -36.5 t-102 -16.5q-150 0 -234.5 84t-84.5 237zM332 1483q0 123 83 197.5t191 74.5t190.5 -70t82.5 -190q0 -121 -83 -196.5t-190 -75.5q-109 0 -191.5 69.5t-82.5 190.5zM379 332q0 -59 31.5 -91t89.5 -32q31 0 64.5 12.5t60 29.5t48.5 34.5t34 30.5l12 12v137h-117 q-119 0 -171 -31.5t-52 -101.5zM506 1489q0 -58 26 -87.5t74 -29.5q43 0 71 31.5t28 87.5q0 57 -26 87t-73 30q-44 0 -72 -31t-28 -88z" />
<glyph unicode="&#xe6;" horiz-adv-x="1773" d="M82 301q0 176 125 257t366 81h144v113q0 147 -158 147q-45 0 -90 -7.5t-67 -15.5l-23 -8l-31 -127h-184l-14 303q0 3 68 22t177.5 38.5t194.5 19.5q230 0 319 -118q135 120 340 120q221 0 342 -126.5t121 -352.5q0 -35 -3 -74.5t-6 -65t-3 -26.5h-678q9 -121 75.5 -188.5 t172.5 -67.5q76 0 161 24.5t132 48.5l47 24l90 -170q-9 -7 -25 -18.5t-67.5 -41t-104 -52.5t-128 -41.5t-146.5 -18.5q-300 0 -426 204q-174 -204 -404 -204q-147 0 -232 86t-85 235zM375 332q0 -58 32.5 -90.5t90.5 -32.5q30 0 63.5 12.5t60 30.5t48.5 36.5t34 31.5l13 12 v133h-117q-119 0 -172 -31.5t-53 -101.5zM1022 666h375q0 100 -41 157.5t-127 57.5t-140.5 -57.5t-66.5 -157.5z" />
<glyph unicode="&#xe7;" horiz-adv-x="1075" d="M72 537q0 275 148 432t415 157q78 0 167.5 -18t139.5 -36l51 -17l-10 -334h-184l-29 143q-59 17 -141 17q-113 0 -176.5 -76t-63.5 -227q0 -169 65 -261t191 -92q41 0 78 6.5t72.5 22t54 25t53 31t39.5 24.5l102 -180q-161 -140 -350 -166v-70q80 -15 128 -63.5 t48 -120.5q0 -88 -74 -145.5t-182 -57.5q-62 0 -125.5 16.5t-96.5 32.5l-32 17l64 112q86 -43 168 -43q44 0 70 21t26 55q0 43 -46.5 66.5t-123.5 23.5v154q-213 23 -329.5 167.5t-116.5 383.5z" />
<glyph unicode="&#xe8;" horiz-adv-x="1155" d="M72 532q0 271 145.5 432.5t400.5 161.5q225 0 345 -128.5t120 -352.5q0 -35 -3 -73t-6 -62t-3 -25h-680q9 -122 75.5 -191t172.5 -69q76 0 162 24.5t134 48.5l48 24l88 -170q-8 -7 -23.5 -18.5t-65 -41t-101 -52.5t-128 -41.5t-149.5 -18.5q-261 0 -396.5 144t-135.5 408 zM258 1526l139 213l457 -365l-100 -149zM395 676h371q0 93 -41.5 149t-126.5 56q-84 0 -137.5 -56t-65.5 -149z" />
<glyph unicode="&#xe9;" horiz-adv-x="1155" d="M72 532q0 271 145.5 432.5t400.5 161.5q225 0 345 -128.5t120 -352.5q0 -35 -3 -73t-6 -62t-3 -25h-680q9 -122 75.5 -191t172.5 -69q76 0 162 24.5t134 48.5l48 24l88 -170q-8 -7 -23.5 -18.5t-65 -41t-101 -52.5t-128 -41.5t-149.5 -18.5q-261 0 -396.5 144t-135.5 408 zM344 1374l100 -149l496 301l-139 213zM395 676h371q0 93 -41.5 149t-126.5 56q-84 0 -137.5 -56t-65.5 -149z" />
<glyph unicode="&#xea;" horiz-adv-x="1155" d="M72 532q0 271 145.5 432.5t400.5 161.5q225 0 345 -128.5t120 -352.5q0 -35 -3 -73t-6 -62t-3 -25h-680q9 -122 75.5 -191t172.5 -69q76 0 162 24.5t134 48.5l48 24l88 -170q-8 -7 -23.5 -18.5t-65 -41t-101 -52.5t-128 -41.5t-149.5 -18.5q-261 0 -396.5 144t-135.5 408 zM147 1360l336 313l183 17l358 -330l-98 -135l-336 245l-344 -245zM395 676h371q0 93 -41.5 149t-126.5 56q-84 0 -137.5 -56t-65.5 -149z" />
<glyph unicode="&#xeb;" horiz-adv-x="1155" d="M72 532q0 271 145.5 432.5t400.5 161.5q225 0 345 -128.5t120 -352.5q0 -35 -3 -73t-6 -62t-3 -25h-680q9 -122 75.5 -191t172.5 -69q76 0 162 24.5t134 48.5l48 24l88 -170q-8 -7 -23.5 -18.5t-65 -41t-101 -52.5t-128 -41.5t-149.5 -18.5q-261 0 -396.5 144t-135.5 408 zM213 1430q0 72 44.5 115.5t107.5 43.5q71 0 109 -41.5t38 -117.5q0 -73 -44.5 -116.5t-107.5 -43.5q-72 0 -109.5 41.5t-37.5 118.5zM395 676h371q0 93 -41.5 149t-126.5 56q-84 0 -137.5 -56t-65.5 -149zM659 1430q0 72 45 115.5t107 43.5q72 0 109.5 -41.5t37.5 -117.5 q0 -74 -44 -117t-107 -43q-72 0 -110 41.5t-38 118.5z" />
<glyph unicode="&#xec;" horiz-adv-x="741" d="M51 1526l139 213l457 -365l-100 -149zM72 0v164l164 51v670l-164 41v164l465 16v-891l143 -51v-164h-608z" />
<glyph unicode="&#xed;" horiz-adv-x="741" d="M72 0v164l164 51v670l-164 41v164l465 16v-891l143 -51v-164h-608zM111 1374l100 -149l496 301l-140 213z" />
<glyph unicode="&#xee;" horiz-adv-x="743" d="M-57 1360l319 313l182 17l340 -330l-100 -135l-315 245l-326 -245zM72 0v164l164 51v670l-164 41v164l465 16v-891l143 -51v-164h-608z" />
<glyph unicode="&#xef;" horiz-adv-x="741" d="M-2 1430q0 72 44.5 115.5t107.5 43.5q71 0 109 -41.5t38 -117.5q0 -73 -44.5 -116.5t-107.5 -43.5q-72 0 -109.5 41.5t-37.5 118.5zM72 0v164l164 51v670l-164 41v164l465 16v-891l143 -51v-164h-608zM424 1430q0 72 44.5 115.5t106.5 43.5q73 0 110.5 -41.5t37.5 -117.5 q0 -73 -44.5 -116.5t-107.5 -43.5q-72 0 -109.5 41.5t-37.5 118.5z" />
<glyph unicode="&#xf0;" horiz-adv-x="1183" d="M72 492q0 251 144.5 396.5t377.5 145.5q83 0 160 -45q-56 148 -160 246l-240 -137l-118 162l180 102q-76 40 -174 76l94 178q160 -39 301 -125l215 125l119 -162l-166 -94q144 -143 220.5 -346t76.5 -457q0 -265 -143.5 -423.5t-385.5 -158.5q-234 0 -367.5 131.5 t-133.5 385.5zM389 502q0 -291 195 -291q108 0 154 76t46 225q0 144 -41.5 215.5t-148.5 71.5t-156 -75t-49 -222z" />
<glyph unicode="&#xf1;" horiz-adv-x="1402" d="M72 0v164l164 51v666l-164 51v164l434 10l14 -141q8 6 22 17t57.5 38t86.5 47.5t101.5 37.5t109.5 17q148 0 229.5 -97.5t81.5 -266.5v-543l144 -51v-164h-564v164l113 51v487q0 72 -38 118t-101 46q-36 0 -71.5 -12t-61 -29t-46 -34t-30.5 -29l-10 -12v-535l112 -51 v-164h-583zM272 1384q4 9 10.5 24.5t30.5 54.5t51.5 68.5t71.5 54t92 24.5q60 0 119.5 -23.5t114.5 -47t106 -23.5q22 0 45 9t39.5 21.5t30 25t20.5 21.5l7 9l108 -95q-4 -9 -10.5 -24t-31 -53.5t-52 -68t-71.5 -53.5t-91 -24q-60 0 -120.5 22.5t-116.5 45t-107 22.5 q-38 0 -75.5 -21t-55.5 -42l-18 -21z" />
<glyph unicode="&#xf2;" horiz-adv-x="1212" d="M72 543q0 274 150 428.5t403 154.5q248 0 382 -144t134 -409q0 -275 -148 -434t-399 -159q-522 0 -522 563zM289 1526l139 213l457 -365l-101 -149zM389 553q0 -169 51.5 -248.5t163.5 -79.5q113 0 166 78.5t53 259.5q0 160 -50.5 239t-158.5 79q-116 0 -170.5 -74.5 t-54.5 -253.5z" />
<glyph unicode="&#xf3;" horiz-adv-x="1212" d="M72 543q0 274 150 428.5t403 154.5q248 0 382 -144t134 -409q0 -275 -148 -434t-399 -159q-522 0 -522 563zM346 1374l100 -149l496 301l-139 213zM389 553q0 -169 51.5 -248.5t163.5 -79.5q113 0 166 78.5t53 259.5q0 160 -50.5 239t-158.5 79q-116 0 -170.5 -74.5 t-54.5 -253.5z" />
<glyph unicode="&#xf4;" horiz-adv-x="1212" d="M72 543q0 274 150 428.5t403 154.5q248 0 382 -144t134 -409q0 -275 -148 -434t-399 -159q-522 0 -522 563zM164 1360l336 313l182 17l358 -330l-98 -135l-336 245l-344 -245zM389 553q0 -169 51.5 -248.5t163.5 -79.5q113 0 166 78.5t53 259.5q0 160 -50.5 239 t-158.5 79q-116 0 -170.5 -74.5t-54.5 -253.5z" />
<glyph unicode="&#xf5;" horiz-adv-x="1212" d="M72 543q0 274 150 428.5t403 154.5q248 0 382 -144t134 -409q0 -275 -148 -434t-399 -159q-522 0 -522 563zM182 1384q4 9 10.5 24.5t30.5 54.5t51.5 68.5t71.5 54t92 24.5q60 0 119.5 -23.5t114.5 -47t106 -23.5q22 0 45 9t39.5 21.5t30 25t20.5 21.5l7 9l108 -95 q-4 -9 -10.5 -24t-31 -53.5t-52 -68t-71.5 -53.5t-91 -24q-60 0 -120.5 22.5t-116.5 45t-107 22.5q-38 0 -75.5 -21t-55.5 -42l-18 -21zM389 553q0 -169 51.5 -248.5t163.5 -79.5q113 0 166 78.5t53 259.5q0 160 -50.5 239t-158.5 79q-116 0 -170.5 -74.5t-54.5 -253.5z" />
<glyph unicode="&#xf6;" horiz-adv-x="1212" d="M72 543q0 274 150 428.5t403 154.5q248 0 382 -144t134 -409q0 -275 -148 -434t-399 -159q-522 0 -522 563zM233 1430q0 72 44.5 115.5t107.5 43.5q71 0 109 -41.5t38 -117.5q0 -74 -44 -117t-107 -43q-72 0 -110 41.5t-38 118.5zM389 553q0 -169 51.5 -248.5 t163.5 -79.5q113 0 166 78.5t53 259.5q0 160 -50.5 239t-158.5 79q-116 0 -170.5 -74.5t-54.5 -253.5zM680 1430q0 72 44.5 115.5t106.5 43.5q73 0 110.5 -41.5t37.5 -117.5q0 -73 -44.5 -116.5t-107.5 -43.5q-72 0 -109.5 41.5t-37.5 118.5z" />
<glyph unicode="&#xf7;" horiz-adv-x="1290" d="M106 426v236h1076v-236h-1076zM467 104q0 89 51 139t131 50q174 0 174 -189q0 -90 -50.5 -140t-129.5 -50q-87 0 -131.5 48.5t-44.5 141.5zM467 985q0 89 51 139t131 50q174 0 174 -189q0 -90 -50.5 -140t-129.5 -50q-87 0 -131.5 48.5t-44.5 141.5z" />
<glyph unicode="&#xf8;" horiz-adv-x="1232" d="M82 543q0 274 150 428.5t403 154.5q105 0 203 -32l133 223l153 -86l-133 -223q160 -145 160 -435q0 -275 -148 -434t-399 -159q-104 0 -211 28l-149 -248l-154 86l148 248q-156 138 -156 449zM399 551q0 -83 23 -150l283 473q-39 17 -80 17q-119 0 -172.5 -77.5 t-53.5 -262.5zM526 231q33 -16 88 -16q115 0 167.5 81.5t52.5 266.5q0 88 -23 144z" />
<glyph unicode="&#xf9;" horiz-adv-x="1370" d="M31 932v164l471 10v-707q0 -86 28.5 -124.5t96.5 -38.5q37 0 74.5 11.5t64.5 27.5t48.5 32t32.5 27l11 12v535l-164 51v164l471 10v-891l164 -41v-160l-432 -14l-20 143q-7 -7 -19 -18t-51 -39t-79 -49.5t-97.5 -39t-112.5 -17.5q-153 0 -238 97t-85 269v535zM311 1526 l140 213l456 -365l-100 -149z" />
<glyph unicode="&#xfa;" horiz-adv-x="1370" d="M31 932v164l471 10v-707q0 -86 28.5 -124.5t96.5 -38.5q37 0 74.5 11.5t64.5 27.5t48.5 32t32.5 27l11 12v535l-164 51v164l471 10v-891l164 -41v-160l-432 -14l-20 143q-7 -7 -19 -18t-51 -39t-79 -49.5t-97.5 -39t-112.5 -17.5q-153 0 -238 97t-85 269v535zM387 1374 l100 -149l496 301l-139 213z" />
<glyph unicode="&#xfb;" horiz-adv-x="1370" d="M31 932v164l471 10v-707q0 -86 28.5 -124.5t96.5 -38.5q37 0 74.5 11.5t64.5 27.5t48.5 32t32.5 27l11 12v535l-164 51v164l471 10v-891l164 -41v-160l-432 -14l-20 143q-7 -7 -19 -18t-51 -39t-79 -49.5t-97.5 -39t-112.5 -17.5q-153 0 -238 97t-85 269v535zM215 1360 l336 313l182 17l359 -330l-99 -135l-336 245l-344 -245z" />
<glyph unicode="&#xfc;" horiz-adv-x="1370" d="M31 932v164l471 10v-707q0 -86 28.5 -124.5t96.5 -38.5q37 0 74.5 11.5t64.5 27.5t48.5 32t32.5 27l11 12v535l-164 51v164l471 10v-891l164 -41v-160l-432 -14l-20 143q-7 -7 -19 -18t-51 -39t-79 -49.5t-97.5 -39t-112.5 -17.5q-153 0 -238 97t-85 269v535zM270 1430 q0 72 44.5 115.5t107.5 43.5q71 0 109 -41.5t38 -117.5q0 -74 -44 -117t-107 -43q-72 0 -110 41.5t-38 118.5zM717 1430q0 72 44.5 115.5t106.5 43.5q73 0 110.5 -41.5t37.5 -117.5q0 -73 -44.5 -116.5t-107.5 -43.5q-72 0 -109.5 41.5t-37.5 118.5z" />
<glyph unicode="&#xfd;" d="M10 932v164l547 10v-174l-115 -21l183 -573l174 567l-119 27v164l551 10v-174l-127 -27l-301 -839q-24 -66 -44.5 -116.5t-51.5 -111.5t-62 -105.5t-73.5 -89t-89.5 -72.5t-107.5 -45.5t-128.5 -17.5q-31 0 -81 4t-84 8l-34 5l29 219h133q47 0 88.5 20t68 45t53.5 66.5 t37.5 63.5t26.5 59l-364 901zM471 1374l100 -149l496 301l-139 213z" />
<glyph unicode="&#xfe;" horiz-adv-x="1290" d="M41 1407v164l471 16v-579q5 5 13.5 13t37.5 28t60.5 35.5t80.5 28.5t99 13q200 0 308 -145.5t108 -396.5q0 -289 -147 -446.5t-437 -157.5q-24 0 -54.5 4t-49.5 8l-19 4v-266l215 -47v-164h-682v164l160 47v1636zM512 242q52 -27 156 -27q233 0 233 348q0 318 -201 318 q-34 0 -66.5 -10t-53.5 -24.5t-37 -28.5t-23 -24l-8 -10v-542z" />
<glyph unicode="&#xff;" d="M10 932v164l547 10v-174l-115 -21l183 -573l174 567l-119 27v164l551 10v-174l-127 -27l-301 -839q-24 -66 -44.5 -116.5t-51.5 -111.5t-62 -105.5t-73.5 -89t-89.5 -72.5t-107.5 -45.5t-128.5 -17.5q-31 0 -81 4t-84 8l-34 5l29 219h133q47 0 88.5 20t68 45t53.5 66.5 t37.5 63.5t26.5 59l-364 901zM233 1430q0 72 44.5 115.5t107.5 43.5q71 0 109 -41.5t38 -117.5q0 -74 -44 -117t-107 -43q-72 0 -110 41.5t-38 118.5zM680 1430q0 72 44.5 115.5t106.5 43.5q73 0 110.5 -41.5t37.5 -117.5q0 -73 -44.5 -116.5t-107.5 -43.5 q-72 0 -109.5 41.5t-37.5 118.5z" />
<glyph unicode="&#x152;" horiz-adv-x="1974" d="M113 711q0 352 181.5 552.5t493.5 200.5q61 0 185.5 -10t177.5 -10h686v-400h-190l-52 154h-331v-338h413v-225h-413v-389h362l47 164h189v-410h-738q-47 0 -178 -10t-198 -10q-309 0 -472 186t-163 545zM457 721q0 -252 74.5 -368.5t232.5 -116.5q42 0 108 5t74 5v952 q-56 8 -145 8q-87 0 -148 -22.5t-106.5 -76.5t-67.5 -149.5t-22 -236.5z" />
<glyph unicode="&#x153;" horiz-adv-x="1900" d="M72 543q0 273 149.5 428t399.5 155q244 0 380 -176q136 176 377 176q221 0 341 -129t120 -352q0 -35 -3 -73t-6 -62t-3 -25h-680q9 -122 75 -191t171 -69q39 0 79 5.5t66 11.5t63.5 20t50 19.5t48.5 22.5t37 18l88 -170q-8 -7 -23.5 -18.5t-64.5 -41t-100.5 -52.5 t-126 -41.5t-146.5 -18.5q-256 0 -385 178q-147 -178 -389 -178q-252 0 -385 138.5t-133 424.5zM389 553q0 -169 52.5 -248.5t162.5 -79.5q115 0 170 78.5t55 259.5q0 159 -52 238.5t-163 79.5q-115 0 -170 -74.5t-55 -253.5zM1151 676h369q0 93 -41.5 149t-126.5 56 q-83 0 -136 -56t-65 -149z" />
<glyph unicode="&#x178;" horiz-adv-x="1366" d="M14 1260v174l580 10v-184l-105 -43l205 -441l217 438l-112 46v174l553 10v-184l-142 -56l-370 -702v-266l153 -62v-174h-624v174l153 62v264l-375 704zM303 1737q0 72 44.5 115.5t107.5 43.5q71 0 109 -41.5t38 -117.5q0 -74 -44 -117t-107 -43q-72 0 -110 41.5 t-38 118.5zM750 1737q0 72 44.5 115.5t106.5 43.5q73 0 110.5 -41.5t37.5 -117.5q0 -73 -44.5 -116.5t-107.5 -43.5q-72 0 -109.5 41.5t-37.5 118.5z" />
<glyph unicode="&#x2c6;" horiz-adv-x="1114" d="M143 1436l314 268l182 16l332 -284l-99 -136l-309 201l-321 -201z" />
<glyph unicode="&#x2dc;" horiz-adv-x="1163" d="M164 1384q4 9 10.5 24.5t30.5 54.5t51.5 68.5t71.5 54t92 24.5q60 0 119.5 -23.5t114.5 -47t106 -23.5q36 0 71 21.5t53 42.5l17 22l109 -95q-4 -9 -10.5 -24t-31 -53.5t-52 -68t-71.5 -53.5t-91 -24q-60 0 -120.5 22.5t-116.5 45t-107 22.5q-38 0 -75.5 -21t-56.5 -42 l-18 -21z" />
<glyph unicode="&#x2000;" horiz-adv-x="979" />
<glyph unicode="&#x2001;" horiz-adv-x="1958" />
<glyph unicode="&#x2002;" horiz-adv-x="979" />
<glyph unicode="&#x2003;" horiz-adv-x="1958" />
<glyph unicode="&#x2004;" horiz-adv-x="652" />
<glyph unicode="&#x2005;" horiz-adv-x="489" />
<glyph unicode="&#x2006;" horiz-adv-x="326" />
<glyph unicode="&#x2007;" horiz-adv-x="326" />
<glyph unicode="&#x2008;" horiz-adv-x="244" />
<glyph unicode="&#x2009;" horiz-adv-x="391" />
<glyph unicode="&#x200a;" horiz-adv-x="108" />
<glyph unicode="&#x2010;" horiz-adv-x="808" d="M113 430v256h583v-256h-583z" />
<glyph unicode="&#x2011;" horiz-adv-x="808" d="M113 430v256h583v-256h-583z" />
<glyph unicode="&#x2012;" horiz-adv-x="808" d="M113 430v256h583v-256h-583z" />
<glyph unicode="&#x2013;" horiz-adv-x="1024" d="M0 547v241h1024v-241h-1024z" />
<glyph unicode="&#x2014;" horiz-adv-x="1986" d="M0 547v241h1987v-241h-1987z" />
<glyph unicode="&#x2018;" horiz-adv-x="636" d="M123 1079q0 228 283 533l129 -105q-14 -18 -34.5 -47.5t-54.5 -96t-34 -103.5q0 -22 15 -49t29.5 -62.5t14.5 -77.5q0 -82 -50 -132t-126 -50q-79 0 -125.5 49t-46.5 141z" />
<glyph unicode="&#x2019;" horiz-adv-x="636" d="M102 995q14 18 34.5 47.5t54.5 96t34 102.5q0 24 -29.5 80t-29.5 109q0 82 50 132t128 50t124 -49t46 -140q0 -228 -281 -534z" />
<glyph unicode="&#x201a;" horiz-adv-x="636" d="M96 -324q14 18 34.5 47.5t54.5 96t34 102.5q0 24 -29.5 80t-29.5 109q0 82 50 132t128 50t124 -49t46 -140q0 -228 -281 -534z" />
<glyph unicode="&#x201c;" horiz-adv-x="1114" d="M123 1079q0 228 283 533l129 -105q-14 -18 -34.5 -47.5t-54.5 -96t-34 -103.5q0 -22 15 -49t29.5 -62.5t14.5 -77.5q0 -82 -50 -132t-126 -50q-79 0 -125.5 49t-46.5 141zM600 1079q0 227 281 533l131 -105q-14 -18 -34.5 -47.5t-54.5 -96t-34 -103.5q0 -22 14.5 -49 t29.5 -62.5t15 -77.5q0 -82 -50 -132t-128 -50t-124 49t-46 141z" />
<glyph unicode="&#x201d;" horiz-adv-x="1114" d="M102 995q14 18 34.5 47.5t54.5 96t34 102.5q0 24 -29.5 80t-29.5 109q0 82 50 132t128 50t124 -49t46 -140q0 -228 -281 -534zM580 995q14 18 34 47.5t54 96t34 102.5q0 24 -29.5 80t-29.5 109q0 82 50 132t126 50q78 0 125 -49.5t47 -139.5q0 -230 -282 -534z" />
<glyph unicode="&#x201e;" horiz-adv-x="1112" d="M96 -324q14 18 34.5 47.5t54.5 96t34 102.5q0 24 -29.5 80t-29.5 109q0 82 50 132t128 50t124 -49t46 -140q0 -228 -281 -534zM573 -324q14 18 34.5 47.5t54.5 96t34 102.5q0 24 -29.5 80t-29.5 109q0 82 50 132t126 50q78 0 125 -49.5t47 -139.5q0 -229 -283 -534z" />
<glyph unicode="&#x2022;" horiz-adv-x="1112" d="M164 645q0 160 113.5 273.5t273.5 113.5t273.5 -113.5t113.5 -273.5t-113.5 -273.5t-273.5 -113.5t-273.5 113.5t-113.5 273.5z" />
<glyph unicode="&#x2026;" horiz-adv-x="1597" d="M106 160q0 84 53 134t126 50q84 0 127 -47.5t43 -136.5q0 -86 -51.5 -136.5t-124.5 -50.5q-84 0 -128.5 48.5t-44.5 138.5zM625 160q0 84 51.5 134t124.5 50q84 0 128 -48t44 -136q0 -86 -51.5 -136.5t-124.5 -50.5q-84 0 -128 48.5t-44 138.5zM1141 160q0 84 52.5 134 t125.5 50q84 0 127 -47.5t43 -136.5q0 -86 -51.5 -136.5t-124.5 -50.5q-84 0 -128 48.5t-44 138.5z" />
<glyph unicode="&#x202f;" horiz-adv-x="391" />
<glyph unicode="&#x2039;" horiz-adv-x="694" d="M102 463v158l320 362l170 -113l-232 -327l232 -328l-170 -115z" />
<glyph unicode="&#x203a;" horiz-adv-x="694" d="M113 215l231 328l-231 327l170 113l319 -362v-158l-319 -363z" />
<glyph unicode="&#x205f;" horiz-adv-x="489" />
<glyph unicode="&#x20ac;" horiz-adv-x="1304" d="M55 453v184h881v-184h-393q61 -215 260 -215q49 0 100.5 12t90.5 29t70.5 34t48.5 29l17 12l113 -180q-8 -8 -22.5 -21.5t-63.5 -48t-102 -60.5t-134 -47.5t-163 -21.5q-83 0 -154.5 17.5t-123.5 45.5t-95 68.5t-71.5 82t-50.5 90.5t-34 89.5t-20 84.5h-154zM55 766v184 h148q15 81 42 152.5t74.5 140t110.5 117.5t155 78.5t203 29.5q96 0 199.5 -21.5t158.5 -42.5l56 -22l-10 -338h-191l-32 144q-78 31 -191 31q-46 0 -84 -15t-63 -38.5t-44.5 -52.5t-30.5 -57.5t-17.5 -52t-8.5 -38.5l-2 -15h408v-184h-881z" />
<glyph unicode="&#x2122;" horiz-adv-x="1886" d="M51 1165v279h717v-279h-113l-34 144h-115v-525l102 -30v-99h-405v99l102 30v525h-115l-26 -144h-113zM834 655v99l102 30v516l-102 29v109l311 6l182 -361l184 355l299 6v-111l-100 -33v-516l100 -30v-99h-364v99l92 30v385l-162 -297l-121 -14l-161 299v-373l92 -30v-99 h-352z" />
<glyph unicode="&#x25fc;" horiz-adv-x="1105" d="M0 0v1106h1106v-1106h-1106z" />
</font>
</defs>
</svg>
