<?xml version="1.0" standalone="no"?>
<!DOCTYPE svg PUBLIC "-//W3C//DTD SVG 1.1//EN" "http://www.w3.org/Graphics/SVG/1.1/DTD/svg11.dtd" >
<svg xmlns="http://www.w3.org/2000/svg">
<metadata></metadata>
<defs>
<font id="bitterbold_italic" horiz-adv-x="1456" >
<font-face units-per-em="2048" ascent="1638" descent="-410" />
<missing-glyph horiz-adv-x="583" />
<glyph unicode="&#xfb01;" horiz-adv-x="1423" d="M-225 -473l39 178h141q157 0 188 197l154 979h-182l28 180l189 31q12 100 32 174.5t57.5 142t91 110.5t134.5 68t187 25q84 0 217.5 -12t224.5 -24l92 -11l-61 -332h-240v153h-225q-98 0 -143 -42t-58 -125l-20 -123l698 10l-141 -891l155 -31l-26 -164l-451 -20l137 883 h-407l-150 -946q-32 -204 -145.5 -321.5t-306.5 -117.5q-36 0 -88.5 7t-86.5 15z" />
<glyph unicode="&#xfb02;" horiz-adv-x="1433" d="M-225 -473l39 178h141q157 0 188 197l154 979h-182l28 178l189 26q10 82 27 148.5t45.5 127.5t70 106t97.5 78t132 50t170 17q109 0 244 -13t215 -27l80 -13l-215 -1344l156 -31l-27 -164l-457 -20l217 1372q-132 14 -245 14q-87 0 -138 -44t-63 -123l-20 -134h251 l-36 -204h-250l-150 -944q-32 -204 -145.5 -321.5t-306.5 -117.5q-36 0 -88.5 7t-86.5 15z" />
<glyph horiz-adv-x="2048" />
<glyph horiz-adv-x="2048" />
<glyph horiz-adv-x="682" />
<glyph unicode="&#xd;" horiz-adv-x="583" />
<glyph unicode=" "  horiz-adv-x="583" />
<glyph unicode="&#x09;" horiz-adv-x="583" />
<glyph unicode="&#xa0;" horiz-adv-x="583" />
<glyph unicode="!" horiz-adv-x="704" d="M113 119q0 95 52 160t148 65q68 0 108 -40t40 -107q0 -95 -52 -159.5t-147 -64.5q-68 0 -108.5 39.5t-40.5 106.5zM225 524l135 1043h304l-201 -1032z" />
<glyph unicode="&#x22;" horiz-adv-x="919" d="M143 1024l90 578h269l-135 -578h-224zM543 1024l90 578h266l-135 -578h-221z" />
<glyph unicode="#" horiz-adv-x="1411" d="M102 289l33 211h211l74 252h-195l33 211h221l78 266h252l-78 -266h250l78 266h250l-76 -266h188l-32 -211h-215l-74 -252h196l-32 -211h-224l-84 -289h-251l83 289h-249l-82 -289h-252l82 289h-185zM598 500h250l74 252h-250z" />
<glyph unicode="$" horiz-adv-x="1167" d="M43 47l59 369h177l4 -164q76 -37 182 -37q92 0 162.5 46t70.5 120q0 39 -28.5 70.5t-74 54.5t-100.5 46t-110 52.5t-100.5 66t-74 94t-28.5 130.5q0 179 111.5 291t290.5 141l37 225l213 15l-37 -234q73 -7 147.5 -25t113.5 -32l38 -14l-64 -347h-158l-24 162 q-84 31 -158 31q-92 0 -150.5 -40t-58.5 -110q0 -33 22.5 -61.5t58.5 -48t82.5 -41t95.5 -41t95.5 -49t82.5 -63t58.5 -84t22.5 -111.5q0 -127 -57 -227.5t-149.5 -160.5t-210.5 -83l-45 -287h-211l43 276q-78 5 -160 22.5t-125 32.5z" />
<glyph unicode="%" horiz-adv-x="1671" d="M154 991q0 209 120.5 343t309.5 134q137 0 211.5 -70.5t74.5 -199.5q0 -207 -113.5 -344t-303.5 -137q-144 0 -221.5 69.5t-77.5 204.5zM236 -14l1062 1472h287l-1063 -1472h-286zM385 1030q0 -69 23.5 -103t74.5 -34q65 0 110.5 77.5t45.5 180.5q0 72 -21 106.5 t-75 34.5q-68 0 -113 -77.5t-45 -184.5zM958 246q0 209 121 343t310 134q137 0 211.5 -70.5t74.5 -199.5q0 -207 -114 -343.5t-304 -136.5q-144 0 -221.5 69t-77.5 204zM1190 285q0 -138 98 -138q65 0 110.5 78t45.5 181q0 72 -21 106.5t-75 34.5q-68 0 -113 -77.5 t-45 -184.5z" />
<glyph unicode="&#x26;" horiz-adv-x="1353" d="M92 317q0 83 28.5 156.5t77.5 128t104 93.5t118 67q-2 2 -21.5 13.5t-31 20t-32 25t-33.5 35t-26.5 43t-20.5 56t-7 67.5q0 147 72.5 249.5t191.5 149.5t274 47q115 0 237.5 -30.5t168.5 -55.5l-55 -323h-187l-10 133q-73 27 -184 27q-103 0 -158 -50.5t-55 -130.5 q0 -77 55 -122.5t152 -45.5h604l-29 -174l-145 -47l-35 -215q-35 -217 -193.5 -338t-402.5 -121q-232 0 -344.5 90t-112.5 252zM410 393q0 -81 51.5 -124.5t142.5 -43.5q105 0 170.5 59t85.5 177l31 188h-193q-122 0 -205 -69.5t-83 -186.5z" />
<glyph unicode="'" horiz-adv-x="442" d="M199 1024l90 578h268l-135 -578h-223z" />
<glyph unicode="(" horiz-adv-x="675" d="M133 264q0 365 123.5 682.5t394.5 630.5h258q-113 -148 -197 -287t-153.5 -300.5t-105 -341.5t-35.5 -374q0 -206 41.5 -400.5t122.5 -344.5h-256q-98 183 -145.5 360.5t-47.5 374.5z" />
<glyph unicode=")" horiz-adv-x="677" d="M-154 -471q113 148 197.5 287t153.5 300.5t105 341t36 373.5q0 206 -41.5 401t-122.5 345h256q98 -183 145.5 -360.5t47.5 -374.5q0 -364 -125 -681.5t-396 -631.5h-256z" />
<glyph unicode="*" horiz-adv-x="884" d="M164 1174l86 182l217 -92l22 -88l-86 -46zM209 930l194 200l91 7l6 -90l-158 -228zM467 1264l10 243l187 4l-60 -249l-80 -60zM500 1047l35 90l88 -11l133 -198l-164 -109zM557 1180l47 82l236 100l37 -184l-254 -52z" />
<glyph unicode="+" horiz-adv-x="1263" d="M92 434l41 238h397l68 420h262l-67 -420h401l-39 -238h-401l-68 -434h-262l68 434h-400z" />
<glyph unicode="," horiz-adv-x="569" d="M-61 -270q18 19 44.5 49t70.5 96t44 102q0 23 -18.5 73t-18.5 87q0 91 55 149t140 58q71 0 110.5 -39.5t39.5 -109.5q0 -69 -36 -151.5t-96 -162t-115 -141t-114 -117.5z" />
<glyph unicode="-" horiz-adv-x="788" d="M102 430l41 256h564l-41 -256h-564z" />
<glyph unicode="." horiz-adv-x="587" d="M57 121q0 95 51 159t146 64q68 0 110 -39t42 -106q0 -95 -53 -160.5t-148 -65.5q-67 0 -107.5 40.5t-40.5 107.5z" />
<glyph unicode="/" horiz-adv-x="917" d="M-51 0l899 1444h301l-899 -1444h-301z" />
<glyph unicode="0" horiz-adv-x="1275" d="M113 430q0 97 10.5 195t34.5 201.5t60 195.5t91.5 174.5t123.5 142t161 94.5t201 35q218 0 324 -122t106 -334q0 -94 -9 -189t-31.5 -198.5t-56.5 -196t-88 -177t-121 -145.5t-160.5 -97t-203.5 -36q-442 0 -442 457zM428 442q0 -115 39.5 -164t132.5 -49q63 0 116 57 t87 144t58.5 193.5t35 203.5t10.5 177q0 112 -38 160t-126 48q-66 0 -121 -56.5t-90 -142.5t-59.5 -192.5t-34.5 -202.5t-10 -176z" />
<glyph unicode="1" horiz-adv-x="1024" d="M61 0l39 236h275l141 880l-332 -198l-94 212l520 314h262l-192 -1208h272l-37 -236h-854z" />
<glyph unicode="2" horiz-adv-x="1159" d="M-20 0l32 250l234 174q291 216 421.5 360t131.5 271q0 81 -51.5 122.5t-147.5 41.5q-38 0 -84.5 -7.5t-73.5 -14.5l-28 -7l-45 -182h-205l43 383q27 9 72 21.5t161.5 34t204.5 21.5q112 0 197.5 -16t154.5 -53t105.5 -103t36.5 -159q0 -105 -38 -204t-114.5 -194 t-162.5 -175.5t-210 -178.5l-172 -135h596l-37 -250h-1021z" />
<glyph unicode="3" horiz-adv-x="1157" d="M-23 90l117 219q20 -9 54.5 -23t124.5 -37.5t159 -23.5q118 0 196.5 66.5t78.5 173.5q0 170 -234 170h-162l35 215h156q141 0 213.5 65t72.5 160q0 68 -52.5 106t-147.5 38q-40 0 -86 -6.5t-72 -13.5l-27 -7l-38 -166h-211l45 360q26 9 71 22.5t163 36.5t212 23 q213 0 336 -82t123 -233q0 -145 -79 -249.5t-232 -149.5q109 -32 170 -109t61 -184q0 -145 -83 -257.5t-222.5 -171.5t-310.5 -59q-68 0 -137 12t-119.5 29t-91.5 34.5t-62 29.5z" />
<glyph unicode="4" horiz-adv-x="1210" d="M0 297l14 235l772 943l312 -31l-144 -901h205l-39 -246h-205l-47 -297h-299l47 297h-616zM301 543h354l86 538z" />
<glyph unicode="5" horiz-adv-x="1161" d="M20 88l115 219q21 -9 56 -22.5t124 -36.5t154 -23q113 0 194.5 67t81.5 169q0 188 -296 188h-254l145 795h811l-41 -252h-530l-52 -309h72q223 -6 348 -102.5t125 -264.5q0 -160 -82 -285t-219 -191.5t-301 -66.5q-111 0 -224 29t-170 58z" />
<glyph unicode="6" horiz-adv-x="1204" d="M119 446q0 110 23.5 225.5t69 230.5t118.5 216.5t165 180t217 124t267 45.5q51 0 104 -6t80 -12l27 -6l-49 -236q-76 11 -166 11q-85 0 -159 -22.5t-123.5 -58t-89.5 -79t-63 -87t-38.5 -79t-21.5 -57.5l-5 -23q17 10 46.5 24.5t116 39t165.5 24.5q165 0 269 -92 t104 -260q0 -159 -80.5 -291.5t-219.5 -208.5t-307 -76q-115 0 -203.5 37t-141 102.5t-79 149.5t-26.5 184zM416 444q0 -102 52.5 -160.5t139.5 -58.5q107 0 173.5 70t72.5 180q10 184 -182 184q-56 0 -116 -17.5t-92 -35.5l-32 -18q-16 -93 -16 -144z" />
<glyph unicode="7" horiz-adv-x="1042" d="M82 997l72 447h1011l-37 -221l-710 -1223h-328l701 1188h-439l-71 -191h-199z" />
<glyph unicode="8" horiz-adv-x="1226" d="M61 313q0 278 318 426q-80 49 -123 110t-43 157q0 216 159 339t416 123q198 0 303 -87t105 -232q0 -133 -73.5 -228.5t-196.5 -148.5q46 -27 75 -49t61 -57t48 -81.5t16 -105.5q0 -113 -47.5 -208.5t-130 -160t-194.5 -101t-240 -36.5q-220 0 -336.5 95.5t-116.5 244.5z M379 375q0 -70 48 -110t134 -40q112 0 180 59t68 150q0 37 -15.5 66.5t-48 53.5t-63 40t-80.5 37q-46 -20 -80.5 -41.5t-69.5 -52t-54 -72t-19 -90.5zM514 1047q0 -64 47.5 -103t138.5 -76q79 33 137 91.5t58 134.5q0 58 -44.5 91.5t-123.5 33.5q-88 0 -150.5 -45.5 t-62.5 -126.5z" />
<glyph unicode="9" horiz-adv-x="1200" d="M92 0l43 233q78 -8 168 -8q87 0 162 22.5t125 59t90 80.5t62.5 88t37.5 80.5t20 58.5l5 23q-17 -10 -46.5 -24t-116 -38t-165.5 -24q-169 0 -272 89t-103 257q0 160 79 291t218 205.5t308 74.5q203 0 327.5 -120.5t124.5 -352.5q0 -99 -17 -200.5t-52 -202t-86 -191.5 t-122.5 -169.5t-157 -136t-195 -90t-230.5 -32.5q-48 0 -100 6.5t-79 13.5zM424 967q-5 -86 41 -131t143 -45q56 0 116 18.5t92 36.5l32 18q14 71 14 131q0 111 -53.5 167.5t-138.5 56.5q-106 0 -173 -70.5t-73 -181.5z" />
<glyph unicode=":" horiz-adv-x="567" d="M61 121q0 95 51 159t146 64q68 0 110 -39t42 -106q0 -95 -53 -160.5t-148 -65.5q-67 0 -107.5 40.5t-40.5 107.5zM158 735q0 96 50.5 161t145.5 65q68 0 110 -39.5t42 -106.5q0 -95 -53 -160t-148 -65q-68 0 -107.5 39t-39.5 106z" />
<glyph unicode=";" horiz-adv-x="606" d="M-41 -270q7 7 17.5 18.5t38 44.5t48.5 63t38.5 64.5t17.5 56.5q0 23 -18.5 73t-18.5 87q0 91 54.5 149t139.5 58q71 0 110.5 -39.5t39.5 -109.5q0 -69 -36 -151.5t-95.5 -162t-114.5 -141t-114 -117.5zM176 735q0 95 52 160.5t147 65.5q68 0 108.5 -39t40.5 -107 q0 -94 -53 -159.5t-149 -65.5q-68 0 -107 38t-39 107z" />
<glyph unicode="&#x3c;" horiz-adv-x="1257" d="M102 426l41 246l1100 448l-45 -272l-752 -303l654 -297l-43 -268z" />
<glyph unicode="=" horiz-adv-x="1325" d="M113 219l37 236h993l-37 -236h-993zM182 659l37 236h993l-36 -236h-994z" />
<glyph unicode="&#x3e;" horiz-adv-x="1247" d="M20 -20q34 198 46 274l753 293l-655 309l43 264l954 -452l-39 -246z" />
<glyph unicode="?" horiz-adv-x="937" d="M174 119q0 95 52.5 160t148.5 65q68 0 107.5 -39t39.5 -106q0 -95 -51.5 -160.5t-146.5 -65.5q-68 0 -109 39.5t-41 106.5zM258 510v133q0 59 23.5 111t61 91.5t82.5 76.5t90 71.5t82.5 69t61 78t23.5 90.5q0 106 -152 106q-39 0 -85 -4.5t-73 -8.5l-26 -5l-16 209 q161 49 319 49q74 0 134.5 -14.5t108.5 -45.5t74.5 -85t26.5 -127q0 -69 -25 -133.5t-66 -115t-90 -97.5t-98.5 -88.5t-91 -81t-69 -83t-29.5 -85.5l-6 -93z" />
<glyph unicode="@" horiz-adv-x="1679" d="M123 530q0 202 60 374t169 297t271.5 196t359.5 71q297 0 467 -146t170 -417q0 -165 -48 -299t-144.5 -215.5t-225.5 -81.5q-176 0 -192 223q-9 -20 -19 -39t-36.5 -55t-54.5 -61.5t-72.5 -45.5t-92.5 -20q-107 0 -166 73t-59 189q0 134 35.5 240t95.5 171.5t135.5 99.5 t159.5 34q40 0 81 -12t62 -24l21 -13l35 33h120l-77 -496q-7 -44 -7 -61q0 -70 56 -70q53 0 93.5 64.5t58.5 150.5t18 170q0 202 -113.5 306t-341.5 104q-138 0 -251 -54.5t-187 -148.5t-114 -219t-40 -268q0 -202 101 -307t286 -105q58 0 119.5 13t93.5 25l33 13l80 -164 q-7 -3 -19 -9t-51 -21t-80 -26t-102 -20.5t-121 -9.5q-264 0 -415.5 148.5t-151.5 412.5zM713 608q0 -121 69 -121q37 0 74 34.5t63 83.5t46.5 98t30.5 83l10 35l26 125q-45 17 -96 17q-94 0 -158.5 -106t-64.5 -249z" />
<glyph unicode="A" d="M-78 0l29 180l137 47l629 1203l315 14l236 -1223l118 -41l-30 -180h-606l28 178l162 51l-25 150h-452l-74 -156l141 -45l-28 -178h-580zM565 598h316l-76 494z" />
<glyph unicode="B" horiz-adv-x="1337" d="M-6 0l29 178l159 49l154 977l-141 60l26 170l461 10h197q170 0 285.5 -81t115.5 -230q0 -147 -86 -243.5t-217 -135.5q250 -72 250 -273q0 -156 -79.5 -266.5t-209.5 -162.5t-297 -52h-647zM489 240h146q129 0 199.5 63.5t70.5 161.5q0 92 -56.5 133t-176.5 41h-119z M588 854h112q117 0 189 59t72 158q0 65 -43.5 98t-114.5 33h-160z" />
<glyph unicode="C" horiz-adv-x="1320" d="M113 510q0 278 102.5 496.5t286 340t416.5 121.5q108 0 219 -24t168 -48l57 -24l-62 -389h-170l-26 193q-111 36 -221 36q-104 0 -189.5 -56t-139 -148.5t-82 -206.5t-28.5 -234q0 -151 75.5 -240t195.5 -89q196 0 401 143l109 -172q-41 -35 -89 -68t-124.5 -75 t-172 -67.5t-192.5 -25.5q-243 0 -388.5 145.5t-145.5 391.5z" />
<glyph unicode="D" d="M4 0l29 178l160 49l153 977l-141 60l26 170l457 10h191q244 0 385 -132.5t141 -379.5q0 -222 -59.5 -398.5t-167.5 -293t-259.5 -178.5t-336.5 -62h-578zM496 240h133q111 0 199.5 56.5t143 152t83 216t28.5 255.5q0 124 -62.5 203t-182.5 79h-189z" />
<glyph unicode="E" horiz-adv-x="1251" d="M14 0l29 178l160 49l153 977l-141 60l27 170l460 10h560l-64 -395h-164l-26 149h-344l-56 -338h404l-35 -225h-406l-61 -389h358l74 166h184l-67 -412h-1045z" />
<glyph unicode="F" horiz-adv-x="1134" d="M14 0l29 178l160 49l153 977l-141 60l27 170l454 10h559l-63 -395h-164l-27 153h-342l-59 -362h414l-37 -226h-412l-61 -387l158 -49l-29 -178h-619z" />
<glyph unicode="G" horiz-adv-x="1466" d="M113 510q0 278 104 497t289 340t418 121q108 0 220.5 -24t171.5 -48l58 -24l-63 -364h-170l-27 170q-112 34 -229 34q-135 0 -238.5 -94t-155 -239.5t-51.5 -311.5q0 -162 79.5 -250t215.5 -88q125 0 228 39l45 269l-154 47l27 164l575 10l-26 -174l-146 -47l-63 -416 q-261 -146 -568 -146q-248 0 -394 142.5t-146 392.5z" />
<glyph unicode="H" horiz-adv-x="1603" d="M-6 0l29 178l157 49l156 977l-141 60l26 170l610 10l-28 -180l-160 -62l-55 -338h522l55 340l-145 60l27 170l614 10l-29 -180l-159 -62l-156 -975l145 -49l-28 -178h-613l29 178l160 49l63 398h-522l-64 -398l144 -49l-29 -178h-608z" />
<glyph unicode="I" horiz-adv-x="774" d="M-6 0l29 178l159 49l156 977l-141 60l26 170l611 10l-29 -180l-160 -62l-156 -975l144 -49l-29 -178h-610z" />
<glyph unicode="J" horiz-adv-x="753" d="M-178 -307l59 205h96q84 0 137 50.5t68 145.5l176 1110l-141 60l27 170l610 10l-29 -180l-159 -62l-160 -993q-22 -137 -59.5 -232.5t-100 -164.5t-155 -101.5t-220.5 -32.5q-28 0 -65.5 4t-60.5 8z" />
<glyph unicode="K" horiz-adv-x="1372" d="M4 0l29 178l160 49l153 977l-141 60l26 170l603 10l-29 -180l-158 -60l-55 -354h133l426 584l338 10l-29 -180l-155 -62l-347 -450l291 -527l135 -47l-28 -178h-586l29 178l116 43l-210 404h-148l-63 -398l139 -49l-29 -178h-600z" />
<glyph unicode="L" horiz-adv-x="1083" d="M-16 0l28 178l160 49l154 977l-142 60l27 170l616 10l-28 -180l-166 -60l-154 -958h312l81 225h189l-78 -471h-999z" />
<glyph unicode="M" horiz-adv-x="1746" d="M-16 0l28 178l158 49l156 977l-142 60l27 170l508 10l196 -692l416 682l486 10l-31 -180l-158 -62l-153 -973l141 -51l-29 -178h-579l28 178l152 51l115 729l-359 -583l-221 -15l-170 590l-115 -723l144 -49l-29 -178h-569z" />
<glyph unicode="N" horiz-adv-x="1570" d="M-16 0l28 178l160 49l154 977l-142 60l27 170l475 10l391 -955l113 715l-133 60l26 170l568 10l-29 -180l-158 -60l-190 -1204h-318l-395 950l-117 -723l138 -49l-29 -178h-569z" />
<glyph unicode="O" horiz-adv-x="1499" d="M111 504q0 156 35 300.5t103.5 264.5t164 209.5t222.5 139.5t273 50q251 0 392 -142.5t141 -393.5q0 -196 -59 -371.5t-163.5 -305.5t-258.5 -206t-334 -76q-247 0 -381.5 137.5t-134.5 393.5zM438 528q0 -144 60.5 -221.5t179.5 -77.5q103 0 188.5 66t138 169.5 t81 222.5t28.5 233q0 292 -246 292q-104 0 -189.5 -66.5t-136 -171t-77.5 -220.5t-27 -226z" />
<glyph unicode="P" horiz-adv-x="1239" d="M-6 0l29 178l159 49l154 977l-141 60l26 170l461 10h192q87 0 161 -20.5t133 -61t92.5 -109.5t33.5 -159q0 -122 -34.5 -221.5t-94.5 -167.5t-143 -114.5t-178.5 -67.5t-202.5 -21h-109l-43 -275l148 -49l-29 -178h-614zM569 741h109q153 0 227 80t74 209 q0 89 -50.5 130.5t-127.5 41.5h-158z" />
<glyph unicode="Q" horiz-adv-x="1529" d="M111 504q0 156 35 300.5t103.5 264.5t164 209.5t223.5 139.5t274 50q250 0 391.5 -140.5t141.5 -385.5q0 -214 -69.5 -403.5t-196.5 -326t-293 -196.5l170 -114q111 -76 176 -76q32 0 85.5 18t90.5 36l37 18l78 -164q-9 -6 -24.5 -15.5t-59.5 -33.5t-84.5 -42.5 t-90 -33.5t-85.5 -15q-105 0 -242 101l-375 285q-211 14 -330.5 152t-119.5 372zM438 528q0 -144 61 -221.5t181 -77.5q83 0 155 43.5t122.5 115.5t87 163.5t54 188.5t17.5 190q0 282 -248 282q-104 0 -189.5 -66.5t-136 -171t-77.5 -220.5t-27 -226z" />
<glyph unicode="R" horiz-adv-x="1341" d="M4 0l29 178l160 51l153 973l-139 62l26 170l455 10h197q118 0 211 -36.5t151 -115t58 -188.5q0 -174 -86 -293.5t-240 -173.5q40 -40 84 -166l80 -242l139 -51l-29 -178h-358l-111 389q-30 108 -79 143t-154 35l-53 -338l141 -51l-29 -178h-606zM584 782h116 q133 0 211 68t78 194q0 77 -46.5 117.5t-127.5 40.5h-164z" />
<glyph unicode="S" horiz-adv-x="1212" d="M49 51l64 393h188l4 -176q78 -39 199 -39q97 0 172.5 49t75.5 134q0 43 -30.5 77.5t-79.5 59.5t-108 50.5t-118.5 58t-108.5 73t-79.5 104.5t-30.5 144q0 119 45 213.5t122.5 154t178.5 90.5t217 31q98 0 202.5 -20.5t159.5 -41.5l56 -20l-70 -372h-168l-25 174 q-88 31 -178 31q-97 0 -156 -43t-59 -117q0 -42 30.5 -76.5t79.5 -60t107.5 -50.5t117.5 -57t108 -71t79.5 -100t30.5 -138q0 -125 -48.5 -227.5t-130.5 -168.5t-189 -101.5t-226 -35.5q-97 0 -205 19.5t-168 39.5z" />
<glyph unicode="T" horiz-adv-x="1181" d="M82 1004l74 440h1157l-70 -440h-184l-21 198h-192l-154 -975l158 -49l-29 -178h-637l29 178l172 49l154 975h-191l-82 -198h-184z" />
<glyph unicode="U" horiz-adv-x="1548" d="M174 1264l27 170l606 10l-29 -180l-153 -62l-105 -649q-10 -68 -10 -115q0 -104 49.5 -158.5t171.5 -54.5q139 0 208 82t99 273l99 622l-144 62l27 170l608 10l-29 -180l-157 -62l-94 -604q-24 -151 -70.5 -262.5t-124.5 -194t-194 -124.5t-271 -42q-258 0 -372.5 102.5 t-114.5 307.5q0 85 14 168l104 649z" />
<glyph unicode="V" horiz-adv-x="1366" d="M82 1264l29 170l417 10l162 -1032l359 792l-136 60l31 170l584 10l-29 -180l-143 -62l-594 -1202h-313l-224 1208z" />
<glyph unicode="W" horiz-adv-x="2002" d="M92 1264l27 170l395 10l127 -965l397 948l238 17l129 -971l303 731l-141 60l30 170l570 10l-31 -180l-147 -60l-547 -1204h-240l-133 901l-403 -901h-240l-190 1208z" />
<glyph unicode="X" horiz-adv-x="1361" d="M-88 0l29 178l155 47l422 492l-278 508l-127 39l26 170l604 10l-28 -180l-101 -31l144 -285l231 279l-86 37l27 170l577 10l-28 -180l-156 -43l-424 -478l285 -524l139 -41l-29 -178h-612l29 178l98 25l-143 297l-236 -287l98 -35l-28 -178h-588z" />
<glyph unicode="Y" horiz-adv-x="1263" d="M92 1264l27 170l385 10l184 -674l260 449l-139 45l27 170l579 10l-29 -180l-151 -58l-469 -735l-39 -242l143 -51l-28 -178h-606l28 178l160 51l43 275l-219 715z" />
<glyph unicode="Z" horiz-adv-x="1216" d="M23 0l28 213l766 989h-409l-74 -174h-180l59 416h1012l-25 -227l-760 -977h420l78 213h190l-71 -453h-1034z" />
<glyph unicode="[" horiz-adv-x="694" d="M31 -471l325 2048l494 -10l-33 -211l-242 -23l-247 -1562l235 -23l-33 -209z" />
<glyph unicode="\" horiz-adv-x="1040" d="M184 1444h289l440 -1444h-286z" />
<glyph unicode="]" horiz-adv-x="714" d="M-72 -461l31 211l242 23l250 1560l-238 23l35 211l497 10l-325 -2048z" />
<glyph unicode="^" horiz-adv-x="1169" d="M72 655l508 789h217l258 -789h-252l-162 502l-319 -502h-250z" />
<glyph unicode="_" horiz-adv-x="1026" d="M-145 -164h1032v-205h-1032v205z" />
<glyph unicode="`" horiz-adv-x="651" d="M150 1493l100 229l532 -346l-77 -153z" />
<glyph unicode="a" horiz-adv-x="1259" d="M53 350q0 149 35 276.5t94.5 218t139.5 155t171 95.5t187 31q63 0 123 -19t89 -37l28 -19l59 55h186l-143 -893l158 -31l-27 -162l-440 -20l71 303q-7 -14 -24.5 -42t-60 -79.5t-90.5 -94t-119.5 -75t-143.5 -32.5q-132 0 -212.5 105.5t-80.5 264.5zM360 389 q0 -81 27.5 -125.5t73.5 -44.5q57 0 113.5 50.5t96 123t70.5 145t47 122.5l15 51l31 170q-60 24 -150 24q-141 0 -232.5 -146.5t-91.5 -369.5z" />
<glyph unicode="b" horiz-adv-x="1253" d="M86 41l209 1325l-150 41l27 164l449 16l-91 -512l-69 -280q7 14 13 25.5t29 48.5t46 65.5t61.5 66.5t77.5 63.5t92 43.5t107 18q94 0 161 -52.5t98.5 -136.5t31.5 -189q0 -143 -36 -267t-99.5 -215t-147.5 -156t-181.5 -97.5t-201.5 -32.5q-98 0 -204.5 15t-163.5 31z M412 227q67 -22 139 -22q128 0 225.5 144.5t97.5 350.5q0 76 -28.5 128.5t-83.5 52.5q-57 0 -111 -50t-90 -121.5t-63.5 -143t-40.5 -121.5l-13 -50z" />
<glyph unicode="c" horiz-adv-x="993" d="M57 375q0 339 176 545t459 206q32 0 63.5 -3.5t60.5 -10t52 -12.5t49 -16t38.5 -15.5t33 -14.5t21.5 -10l-52 -323h-180l-10 143q-41 19 -109 19q-74 0 -133.5 -41.5t-94.5 -109.5t-53 -149t-18 -167q0 -89 45 -140t123 -51q24 0 50 3.5t52.5 10t47 12.5t46.5 16.5 t38 15.5t34 15t23 11l88 -162q-242 -167 -467 -167q-179 0 -281 102.5t-102 292.5z" />
<glyph unicode="d" horiz-adv-x="1249" d="M63 350q0 185 53 335.5t141 245t199 145t232 50.5q43 0 87.5 -10t67.5 -20l23 -9l47 279l-157 41l24 164l455 16l-221 -1374l155 -31l-26 -172l-428 -10l76 303q-7 -15 -24.5 -42.5t-60 -79.5t-90.5 -94t-119.5 -74.5t-144.5 -32.5q-133 0 -211 104.5t-78 265.5zM367 393 q0 -82 26.5 -128t73.5 -46q57 0 113 50.5t95 123t69.5 145t45.5 122.5l15 51l29 170q-58 24 -144 24q-76 0 -139 -43.5t-102.5 -116t-60.5 -163.5t-21 -189z" />
<glyph unicode="e" horiz-adv-x="1069" d="M53 358q0 166 49.5 310.5t133 244t196.5 156.5t238 57q181 0 285 -79t104 -213q0 -177 -187.5 -286t-519.5 -112q0 -126 47.5 -173.5t145.5 -47.5q42 0 95 10.5t87.5 21t79.5 26t49 16.5l86 -152q-41 -28 -102.5 -60t-170.5 -64.5t-208 -32.5q-187 0 -297.5 100 t-110.5 278zM377 616q186 4 285.5 55.5t99.5 125.5q0 98 -117 98q-91 0 -164 -77.5t-104 -201.5z" />
<glyph unicode="f" horiz-adv-x="821" d="M-225 -473l39 178h141q157 0 188 197l154 979h-182l28 178l189 26q12 101 32 176.5t56 144t87 112t128 69t178 25.5q76 0 161.5 -12t133.5 -24l47 -11l-61 -332h-174v153h-99q-85 0 -126 -42.5t-54 -124.5l-20 -134h272l-37 -204h-270l-150 -944q-32 -204 -145.5 -321.5 t-306.5 -117.5q-36 0 -88.5 7t-86.5 15z" />
<glyph unicode="g" horiz-adv-x="1206" d="M25 -416l67 201q22 -8 57.5 -19.5t123.5 -31t149 -19.5q128 0 198 63.5t97 190.5l71 340q-132 -220 -291 -296q-71 -33 -141 -33q-132 0 -213.5 101.5t-81.5 258.5q0 184 53 336t141 248.5t198.5 149t228.5 52.5q63 0 123 -19t89 -37l28 -19l59 55h180l-180 -1131 q-79 -491 -518 -491q-90 0 -199.5 25t-174 48.5t-64.5 26.5zM362 391q0 -82 27 -127t74 -45q42 0 84 27t74.5 70.5t62.5 96t51.5 105t37.5 96t24 70.5l8 27l29 170q-58 24 -148 24q-93 0 -167.5 -67t-115.5 -184.5t-41 -262.5z" />
<glyph unicode="h" horiz-adv-x="1308" d="M94 0l219 1366l-157 41l26 164l463 16l-143 -809q5 13 22.5 44.5t59 86t90 101t121 81.5t147.5 35q229 0 229 -247q0 -49 -10 -121l-86 -543l154 -31l-27 -164l-459 -20l115 700q6 40 6 74q0 100 -78 100q-51 0 -100.5 -40.5t-86 -100t-67 -131.5t-48 -129.5t-25.5 -99.5 l-68 -373h-297z" />
<glyph unicode="i" horiz-adv-x="684" d="M90 926l29 164l461 16l-142 -891l156 -31l-27 -164l-458 -20l139 885zM301 1403q0 94 54 159.5t141 65.5q63 0 102 -37t39 -106q0 -96 -53.5 -163t-137.5 -67q-66 0 -105.5 38t-39.5 110z" />
<glyph unicode="j" horiz-adv-x="673" d="M-274 -471l41 180q7 0 51.5 -3t77.5 -3q54 0 89 14t58 49.5t35.5 80t25.5 120.5l148 918l-160 41l29 164l454 16l-192 -1194q-31 -195 -148 -304.5t-305 -109.5q-39 0 -90 8t-82 16zM295 1403q0 94 53.5 159.5t140.5 65.5q65 0 104.5 -37t39.5 -106q0 -96 -53.5 -163 t-139.5 -67q-65 0 -105 38.5t-40 109.5z" />
<glyph unicode="k" horiz-adv-x="1124" d="M90 0l219 1366l-157 41l26 164l459 16l-143 -893h133l168 209l-82 29l24 164l488 10l-27 -174l-133 -25l-242 -280l170 -416l148 -47l-23 -164h-354l-180 500h-121l-80 -500h-293z" />
<glyph unicode="l" horiz-adv-x="657" d="M94 0l219 1366l-157 41l26 164l459 16l-219 -1372l156 -31l-27 -164z" />
<glyph unicode="m" horiz-adv-x="1921" d="M90 926l27 164l452 16l-67 -330q96 193 234 285q96 65 198 65q112 0 166.5 -67.5t54.5 -179.5q0 -35 -6 -76q18 36 40.5 72t62 83.5t83 82.5t103.5 60t123 25q116 0 170.5 -66t54.5 -183q0 -51 -10 -119l-88 -543l153 -31l-26 -164l-453 -20l115 700q6 40 6 74 q0 100 -78 100q-54 0 -106 -48.5t-92 -126t-68.5 -153t-48.5 -151.5l-64 -395h-289l113 700q6 40 6 74q0 100 -78 100q-52 0 -102.5 -48t-91.5 -128t-72.5 -167t-56.5 -183l-58 -348h-288l139 885z" />
<glyph unicode="n" horiz-adv-x="1327" d="M90 926l27 164l461 16l-70 -328q9 18 25 45t60 85t92.5 102.5t122 80t148.5 35.5q117 0 176.5 -67t59.5 -182q0 -51 -10 -119l-95 -543l160 -31l-26 -164l-463 -20l112 696q9 61 9 74q0 100 -78 100q-63 0 -126.5 -65.5t-107.5 -155.5t-72.5 -172t-33.5 -127l-60 -350 h-295l142 885z" />
<glyph unicode="o" horiz-adv-x="1185" d="M61 410q0 325 170 520.5t449 195.5q210 0 326 -115.5t116 -316.5q0 -324 -171 -519t-451 -195q-208 0 -323.5 112.5t-115.5 317.5zM369 426q0 -201 166 -201q79 0 136.5 46t87 121t43 153.5t13.5 161.5q-3 86 -47.5 130t-122.5 44q-125 0 -200.5 -131.5t-75.5 -323.5z " />
<glyph unicode="p" horiz-adv-x="1261" d="M-127 -471l27 164l161 51l179 1141l-150 41l27 164l446 16l-82 -311q10 21 23.5 45.5t55 80.5t87 97t117 74.5t147.5 33.5q139 0 217 -108t78 -270q0 -175 -53.5 -322.5t-142.5 -242.5t-201.5 -148t-233.5 -53q-103 0 -180 36l-45 -274l158 -51l-27 -164h-608zM430 227 q69 -22 145 -22q83 0 157.5 64.5t120.5 179.5t46 251q0 77 -28.5 129t-84.5 52q-42 0 -83 -27t-72.5 -69.5t-59.5 -94.5t-47.5 -104t-34 -94.5t-21.5 -69.5l-7 -27z" />
<glyph unicode="q" horiz-adv-x="1208" d="M63 350q0 184 53.5 334.5t142 245t198.5 145.5t229 51q63 0 123 -19t89 -37l28 -19l59 55h180l-217 -1356l144 -57l-27 -164h-614l26 164l182 57l43 250l78 291q-10 -19 -24 -41t-57 -75t-89 -92t-116 -71t-142 -32q-131 0 -210 105t-79 265zM367 389q0 -81 27 -125.5 t73 -44.5q57 0 113.5 50.5t96.5 123t71.5 145t47.5 122.5l15 51l31 170q-64 24 -152 24q-140 0 -231.5 -147t-91.5 -369z" />
<glyph unicode="r" horiz-adv-x="915" d="M92 942l25 148l454 16l-63 -307q6 14 20.5 42.5t51.5 80.5t80 95t108.5 76t134.5 33q25 0 54 -5t45 -10l16 -5l-80 -406h-205v160q-48 -13 -106.5 -89t-106.5 -186t-65 -214l-60 -371h-286l141 901z" />
<glyph unicode="s" horiz-adv-x="997" d="M23 31l53 327h176v-143q59 -22 141 -22q83 0 128.5 30t45.5 88q0 34 -24 62.5t-62 51t-84.5 45t-93 50.5t-84.5 61.5t-62 84t-24 112.5q0 116 62 196t162.5 116t232.5 36q81 0 168 -14t134 -28l46 -15l-55 -307h-176l-11 133q-42 18 -118 18q-68 0 -106 -28.5t-38 -79.5 q0 -34 24.5 -62.5t64 -51t86.5 -45t94.5 -50t87 -60.5t64 -81.5t24.5 -108.5q0 -173 -138 -269.5t-362 -96.5q-82 0 -171 12.5t-137 25.5z" />
<glyph unicode="t" horiz-adv-x="827" d="M68 854l30 195l189 26l45 281l299 57l-56 -338h275l-35 -221h-274l-72 -444q-10 -56 -10 -101q0 -100 86 -100q26 0 67.5 10.5t69.5 20.5l29 10l45 -148q-60 -38 -165 -80t-185 -42q-123 0 -181.5 67t-58.5 201q0 67 10 123l76 483h-184z" />
<glyph unicode="u" horiz-adv-x="1310" d="M80 926l26 164l455 16q-114 -707 -118 -752q-1 -12 -1 -22q0 -103 78 -103q51 0 101.5 41t86 97.5t68 128t48.5 119t26 85.5l68 406h288l-141 -893l156 -31l-27 -162l-453 -20l70 326q-9 -18 -24.5 -44.5t-59.5 -84.5t-92 -102t-121.5 -79.5t-148.5 -35.5 q-226 0 -226 247q0 43 12.5 129t57.5 355q18 109 29 174z" />
<glyph unicode="v" horiz-adv-x="1155" d="M4 926l25 164l389 16l110 -637l17 -174l274 600l-125 31l27 164l516 16l-29 -174l-100 -33l-446 -899h-332l-187 891z" />
<glyph unicode="w" horiz-adv-x="1683" d="M18 926l27 164l389 16l84 -768l289 739l237 33l101 -772l225 557l-131 31l27 164l495 16l-28 -174l-86 -27l-414 -905h-305l-86 614l-248 -614h-303l-141 899z" />
<glyph unicode="x" horiz-adv-x="1122" d="M-53 0l26 164l138 47l278 352l-174 332l-145 31l26 164l340 16l162 -363l262 353l334 10l-29 -174l-145 -33l-283 -344l178 -354l156 -29l-27 -162l-350 -20l-172 377l-260 -367h-315z" />
<glyph unicode="y" horiz-adv-x="1153" d="M-63 -451l57 205q79 -10 151 -10q102 0 152 40.5t104 158.5l-241 948l-142 35l25 164l393 16l139 -668l13 -127l241 586l-127 29l25 164l514 16l-29 -174l-100 -33l-391 -866q-47 -104 -82 -174t-75 -133.5t-76 -101t-81.5 -65.5t-95.5 -39.5t-114 -11.5q-55 0 -120 10 t-103 20z" />
<glyph unicode="z" horiz-adv-x="1019" d="M14 0l15 184l602 707h-279l-67 -154h-170l55 369h827l-14 -180l-586 -709h289l70 182h164l-50 -399h-856z" />
<glyph unicode="{" horiz-adv-x="763" d="M72 502l34 205q103 0 152 55.5t66 157.5l47 288q33 205 138.5 292t311.5 87h103l-31 -207q-98 0 -151 -20t-79.5 -63.5t-41.5 -129.5l-48 -274q-34 -217 -225 -289q139 -59 139 -219q0 -35 -6 -72l-57 -354q-6 -43 -6 -74q0 -78 47 -108.5t166 -30.5l-33 -207h-104 q-177 0 -257.5 63t-80.5 208q0 53 8 108l59 371q6 38 6 69q0 69 -36 106.5t-121 37.5z" />
<glyph unicode="|" horiz-adv-x="604" d="M23 -471l321 2017h234l-322 -2017h-233z" />
<glyph unicode="}" horiz-adv-x="761" d="M-82 -461l33 207q138 0 195 45t77 168l49 311q21 131 76.5 213.5t159.5 120.5q-146 61 -146 223q0 26 7 66l34 205q19 121 19 143q0 77 -47.5 108t-165.5 31l35 207h108q181 0 265 -71.5t67 -225.5l-49 -336q-12 -78 -12 -102q0 -70 37 -107.5t122 -37.5l-32 -205 q-106 0 -156.5 -56t-65.5 -157l-51 -328q-35 -223 -141.5 -322.5t-312.5 -99.5h-105z" />
<glyph unicode="~" horiz-adv-x="1280" d="M123 530q6 10 17 26.5t47.5 58.5t75 74t97 58.5t117.5 26.5q58 0 115.5 -21.5t96 -47t90 -47t98.5 -21.5q49 0 99.5 28.5t76.5 56.5l26 28l115 -103q-6 -10 -17.5 -26.5t-48.5 -59t-75 -75t-94.5 -59t-110.5 -26.5q-58 0 -117.5 21.5t-101 47.5t-95.5 47.5t-102 21.5 q-29 0 -60.5 -11.5t-55.5 -27.5t-44 -32.5t-30 -27.5l-11 -12z" />
<glyph unicode="&#xa1;" horiz-adv-x="624" d="M41 -453l201 1033l239 10l-137 -1043h-303zM238 918q0 95 50.5 159t145.5 64q68 0 110 -39.5t42 -106.5q0 -95 -53 -160t-148 -65q-67 0 -107 40t-40 108z" />
<glyph unicode="&#xa2;" horiz-adv-x="1007" d="M90 598q0 261 122.5 431t330.5 218l30 180q110 9 215 15l-30 -180q35 -3 70 -10.5t64.5 -17.5t50 -18.5t41 -18.5t24.5 -11l-58 -307h-174v141q-40 16 -106 16q-72 0 -129 -33t-91.5 -88.5t-52.5 -125t-18 -146.5q0 -88 52.5 -144.5t135.5 -56.5q58 0 113.5 14.5t82.5 27 t68 34.5l87 -143q-52 -38 -142.5 -84t-185.5 -66l-35 -225h-213l35 225q-131 30 -209 129.5t-78 243.5z" />
<glyph unicode="&#xa3;" horiz-adv-x="1232" d="M6 0l27 178l106 37q81 27 104.5 101t45.5 299q3 26 4 40h-184l30 185l176 30q10 98 21 174q26 198 149 311t340 113q108 0 211 -17t152 -33l49 -17l-59 -369h-170l-27 185q-108 12 -160 12q-86 0 -135.5 -49.5t-60.5 -132.5q-5 -33 -10 -95.5t-7 -77.5h285l-37 -219h-268 l-23 -202q-4 -41 -16.5 -77.5t-25 -58.5t-28.5 -41t-23 -25t-13 -11h370l72 176h186l-67 -416h-1014z" />
<glyph unicode="&#xa4;" horiz-adv-x="1261" d="M53 240l172 153q-20 59 -20 142q0 160 92 292l-125 156l172 164l131 -160q107 57 225 57q122 0 207 -51l178 156l123 -160l-170 -151q23 -71 23 -142q0 -170 -98 -311l124 -152l-174 -161l-129 155q-106 -53 -219 -53q-129 0 -217 55l-174 -153zM459 553q0 -80 38.5 -121 t104.5 -41q94 0 150.5 75t56.5 198q0 81 -35.5 122t-101.5 41q-97 0 -155 -74t-58 -200z" />
<glyph unicode="&#xa5;" horiz-adv-x="1335" d="M123 1264l27 170l382 10l185 -674l260 449l-139 45l28 170l580 10l-29 -180l-153 -58l-244 -381h184l-28 -184h-994l31 184h184l-118 394zM135 334l29 184h993l-31 -184h-354l-16 -105l145 -51l-29 -178h-606l29 178l160 51l16 105h-336z" />
<glyph unicode="&#xa6;" horiz-adv-x="557" d="M31 -543l133 840h233l-135 -840h-231zM236 748l131 819h233l-131 -819h-233z" />
<glyph unicode="&#xa7;" horiz-adv-x="1126" d="M72 -244l65 350h154l6 -184q43 -10 100 -10q76 0 131.5 48.5t55.5 125.5q0 41 -23.5 79t-61.5 69.5t-83.5 63.5t-91 68.5t-83.5 76.5t-61.5 95t-23.5 117q0 126 56 220t138 143q-31 97 -31 149q0 130 65.5 233t171.5 157.5t230 54.5q82 0 160.5 -16t115.5 -32l38 -16 l-60 -338h-149l-12 176q-47 11 -88 11q-86 0 -140.5 -49.5t-54.5 -130.5q0 -40 23.5 -78.5t61.5 -71.5t84 -66.5t92 -70.5t84 -77t61.5 -93t23.5 -111q0 -113 -53.5 -203.5t-145.5 -154.5q35 -72 35 -137q0 -130 -64.5 -235.5t-172.5 -163.5t-236 -58q-76 0 -155.5 14.5 t-120.5 29.5zM412 727q0 -41 31.5 -81.5t72 -68t99 -68t92.5 -71.5q61 57 61 135q0 34 -19 66t-53 60t-70 52t-81 55.5t-74 57.5q-59 -59 -59 -137z" />
<glyph unicode="&#xa8;" horiz-adv-x="1054" d="M209 1421q0 83 45 140t125 57q59 0 93 -33.5t34 -91.5q0 -81 -47.5 -138t-126.5 -57q-57 0 -90 33t-33 90zM645 1421q0 82 45 139.5t123 57.5q59 0 93 -33.5t34 -91.5q0 -82 -46.5 -138.5t-125.5 -56.5q-57 0 -90 33t-33 90z" />
<glyph unicode="&#xa9;" horiz-adv-x="1716" d="M92 707q0 162 60 304.5t163 243.5t246.5 159.5t306.5 58.5q220 0 390.5 -89.5t268 -260t97.5 -396.5q0 -162 -63 -305t-170 -243.5t-254 -159t-310 -58.5q-333 0 -534 201t-201 545zM301 717q0 -264 143.5 -413.5t393.5 -149.5q165 0 296 70.5t206 199.5t75 293 q0 261 -152.5 412t-404.5 151q-248 0 -402.5 -156.5t-154.5 -406.5zM475 700q0 198 105 315.5t294 117.5q56 0 122.5 -15.5t104.5 -31.5l38 -15l-6 -229h-142l-22 112q-39 13 -99 13q-170 0 -170 -240q0 -246 179 -246q57 0 116.5 26t91.5 52l76 -117q-156 -131 -311 -131 q-175 0 -276 101.5t-101 287.5z" />
<glyph unicode="&#xaa;" horiz-adv-x="989" d="M80 276l33 205h745l-33 -205h-745zM119 918q0 131 37.5 237.5t101 173.5t143 103t166.5 36q43 0 86 -12t65 -24l21 -13l39 35h144l-101 -629l115 -24l-21 -133l-323 -11l51 222q-5 -10 -16 -28.5t-41.5 -57.5t-65 -70t-86 -55.5t-104.5 -24.5q-97 0 -154 80.5t-57 194.5z M346 940q0 -57 19 -87t51 -30q39 0 78.5 35.5t67 86.5t49.5 102t33 87l11 35l23 113q-46 18 -109 18q-93 0 -158 -101t-65 -259z" />
<glyph unicode="&#xab;" horiz-adv-x="1251" d="M117 471l24 158l373 348l145 -119l-278 -311l174 -328l-174 -113zM614 471l25 158l381 348l145 -119l-288 -311l184 -328l-174 -113z" />
<glyph unicode="&#xac;" horiz-adv-x="1310" d="M123 532l39 236h1046l-96 -604h-252l60 368h-797z" />
<glyph unicode="&#xad;" horiz-adv-x="788" d="M102 430l41 256h564l-41 -256h-564z" />
<glyph unicode="&#xae;" horiz-adv-x="1482" d="M182 920q0 184 84 332.5t232.5 232.5t332.5 84q183 0 331 -78t233.5 -222t85.5 -327t-90 -332.5t-243 -233t-337 -83.5q-277 0 -453 174.5t-176 452.5zM385 932q0 -207 117 -333t319 -126q204 0 332.5 127.5t128.5 331.5t-128.5 330.5t-332.5 126.5q-202 0 -319 -125.5 t-117 -331.5zM545 618v93l71 24v406l-71 28v86l293 5q114 2 183 -47t69 -140q0 -119 -107 -172q1 -1 7 -8t14.5 -19t17.5 -28l59 -111l66 -24v-93h-182l-80 170q-24 50 -45.5 64t-65.5 14v-131l68 -24v-93h-297zM774 975h53q41 0 72 23t31 59q0 39 -23 60.5t-65 21.5h-68 v-164z" />
<glyph unicode="&#xaf;" horiz-adv-x="632" d="M0 1315l37 215h596l-37 -215h-596z" />
<glyph unicode="&#xb0;" horiz-adv-x="833" d="M113 1163q0 144 106 249.5t260 105.5q133 0 217 -76t84 -217q0 -94 -46.5 -178t-132 -136.5t-189.5 -52.5q-130 0 -214.5 78t-84.5 227zM317 1180q0 -67 31.5 -101.5t85.5 -34.5q63 0 103.5 45.5t40.5 114.5q0 62 -32 93.5t-85 31.5q-63 0 -103.5 -42.5t-40.5 -106.5z " />
<glyph unicode="&#xb1;" horiz-adv-x="1261" d="M31 -74l37 234h1028l-37 -234h-1028zM137 590l39 239h383l47 301h264l-47 -301h379l-39 -239h-379l-49 -309h-264l49 309h-383z" />
<glyph unicode="&#xb2;" horiz-adv-x="833" d="M104 573l33 205q245 171 300 215q128 101 147 172q4 16 4 31q0 70 -94 70q-21 0 -43 -4t-33 -8l-12 -3l-27 -108h-170l35 270q166 51 301 51q150 0 233.5 -51.5t83.5 -155.5q0 -35 -6.5 -68t-22.5 -64t-31.5 -56.5t-44 -54.5t-48 -48.5t-56.5 -48t-56.5 -43.5t-61 -44.5 t-58.5 -41.5h322l-35 -215h-660z" />
<glyph unicode="&#xb3;" horiz-adv-x="796" d="M68 643l77 164q12 -6 33.5 -15t80.5 -24.5t110 -15.5q72 0 113.5 29t41.5 79q0 80 -123 80h-116l22 154h111q155 0 155 112q0 68 -98 68q-26 0 -54.5 -3t-43.5 -6l-15 -3l-20 -78h-162l31 233q178 47 315 47q147 0 223 -51.5t76 -150.5q0 -89 -53 -147.5t-143 -82.5 q65 -11 108 -56t43 -108q0 -80 -34.5 -142t-93.5 -97.5t-130 -53.5t-151 -18q-73 0 -148.5 21.5t-114.5 43.5z" />
<glyph unicode="&#xb4;" horiz-adv-x="593" d="M131 1378l94 -149l523 289l-107 213z" />
<glyph unicode="&#xb5;" horiz-adv-x="1327" d="M16 -481l234 1366l-160 41l29 164l454 16l-114 -705q-8 -57 -8 -69q0 -47 21 -75t63 -28q61 0 122 60t105 147.5t74 172t41 147.5l61 350h289l-144 -893l156 -35l-29 -164l-446 -14l70 328q-5 -14 -20 -45.5t-51 -86.5t-78.5 -101t-106 -80.5t-129.5 -34.5q-31 0 -62 14 l-82 -475h-289z" />
<glyph unicode="&#xb6;" horiz-adv-x="1474" d="M172 -348l27 168l172 47l110 692q-136 18 -221.5 117t-85.5 250q0 140 65 258t186 189t273 71h367l405 -17l-26 -163l-164 -41l-252 -1571h-250l252 1571h-209l-252 -1571h-397z" />
<glyph unicode="&#xb7;" horiz-adv-x="626" d="M133 586q0 100 53 166.5t152 66.5q70 0 113 -40.5t43 -110.5q0 -98 -55 -166t-154 -68q-69 0 -110.5 41.5t-41.5 110.5z" />
<glyph unicode="&#xb8;" horiz-adv-x="892" d="M221 -418l78 113q65 -39 141 -39q48 0 80.5 22.5t32.5 63.5q0 39 -41.5 59.5t-112.5 20.5l29 178h170l-14 -90q67 -14 106 -54.5t39 -101.5q0 -104 -81 -168.5t-191 -64.5q-62 0 -121 15.5t-87 30.5z" />
<glyph unicode="&#xb9;" horiz-adv-x="761" d="M133 573l29 183h182l70 432l-195 -113l-69 166l342 203h210l-108 -688h178l-29 -183h-610z" />
<glyph unicode="&#xba;" horiz-adv-x="1015" d="M33 276l33 205h745l-33 -205h-745zM131 944q0 233 133 379.5t344 146.5q154 0 238 -78.5t84 -220.5q0 -151 -55 -270t-162 -188.5t-248 -69.5q-160 0 -247 76.5t-87 224.5zM373 965q0 -68 34 -102t97 -34q59 0 102 48t62.5 118.5t19.5 149.5q0 139 -121 139 q-62 0 -107 -46.5t-66 -117.5t-21 -155z" />
<glyph unicode="&#xbb;" horiz-adv-x="1251" d="M86 223l289 314l-185 325l175 115l272 -367l-25 -157l-381 -347zM592 223l278 314l-174 325l174 115l265 -367l-25 -157l-373 -347z" />
<glyph unicode="&#xbc;" horiz-adv-x="1986" d="M102 573l29 183h188l68 428l-197 -113l-71 170l346 203h217l-109 -688h162l-28 -183h-605zM348 0l1026 1444h291l-1026 -1444h-291zM1104 158l4 172l477 551l281 -31l-80 -502h119l-33 -190h-117l-24 -158h-254l24 158h-397zM1346 348h188l41 260z" />
<glyph unicode="&#xbd;" horiz-adv-x="2023" d="M102 573l29 183h188l68 428l-197 -113l-71 170l346 203h217l-109 -688h162l-28 -183h-605zM350 0l1026 1444h291l-1026 -1444h-291zM1194 0l33 205q245 171 303 217q126 101 144 173q3 14 3 28q0 69 -94 69q-21 0 -43 -3.5t-34 -6.5l-11 -4l-27 -109h-170l35 271 q166 51 301 51q150 0 234 -51.5t84 -155.5q0 -31 -6.5 -61.5t-16 -56t-28.5 -53.5t-34 -48.5t-43 -47t-45.5 -43t-52 -42.5t-52 -39t-55 -40t-52.5 -38h321l-35 -215h-659z" />
<glyph unicode="&#xbe;" horiz-adv-x="2011" d="M72 635l78 164q12 -6 33 -15.5t80 -25t110 -15.5q72 0 113.5 29.5t41.5 79.5q0 80 -122 80h-117l22 153h111q156 0 156 113q0 68 -99 68q-26 0 -54 -3t-43 -7l-15 -3l-21 -77h-162l31 233q178 47 315 47q147 0 223 -52t76 -151q0 -89 -53 -147t-143 -82q65 -11 108 -56 t43 -108q0 -80 -34.5 -142t-93.5 -97.5t-130 -53.5t-151 -18q-73 0 -148.5 21.5t-114.5 43.5zM373 0l1026 1444h291l-1026 -1444h-291zM1128 158l5 172l477 551l280 -31l-80 -502h119l-33 -190h-116l-25 -158h-254l25 158h-398zM1370 348h189l40 260z" />
<glyph unicode="&#xbf;" horiz-adv-x="927" d="M20 -190q0 70 25 134.5t66 115t90 97.5t98.5 88.5t91 81t69 83t29.5 86.5l7 92l260 18v-135q0 -58 -23.5 -109.5t-61 -91t-82.5 -76.5t-90 -71.5t-82.5 -69.5t-61 -78t-23.5 -90q0 -108 151 -108q39 0 85.5 4.5t73.5 8.5l26 5l16 -207q-161 -49 -319 -49 q-74 0 -134.5 14.5t-109 46t-75 85t-26.5 125.5zM492 918q0 95 50.5 159t145.5 64q68 0 110 -39.5t42 -106.5q0 -95 -53 -160t-148 -65q-67 0 -107 40t-40 108z" />
<glyph unicode="&#xc0;" d="M-78 0l29 180l137 47l629 1203l315 14l236 -1223l118 -41l-30 -180h-606l28 178l162 51l-25 150h-452l-74 -156l141 -45l-28 -178h-580zM565 598h316l-76 494zM594 1739l96 221l496 -268l-78 -164z" />
<glyph unicode="&#xc1;" d="M-78 0l29 180l137 47l629 1203l315 14l236 -1223l118 -41l-30 -180h-606l28 178l162 51l-25 150h-452l-74 -156l141 -45l-28 -178h-580zM565 598h316l-76 494zM713 1675l501 267l109 -213l-532 -218z" />
<glyph unicode="&#xc2;" d="M-78 0l29 180l137 47l629 1203l315 14l236 -1223l118 -41l-30 -180h-606l28 178l162 51l-25 150h-452l-74 -156l141 -45l-28 -178h-580zM516 1659l352 280l179 15l266 -295l-115 -133l-260 205l-336 -205zM565 598h316l-76 494z" />
<glyph unicode="&#xc3;" d="M-78 0l29 180l137 47l629 1203l315 14l236 -1223l118 -41l-30 -180h-606l28 178l162 51l-25 150h-452l-74 -156l141 -45l-28 -178h-580zM496 1681q5 9 14.5 24t39.5 52.5t62 66.5t79 53t93 24q58 0 115.5 -23.5t110.5 -46.5t102 -23q35 0 72.5 21.5t57.5 42.5l20 22 l92 -79q-5 -9 -14 -24t-38.5 -54t-61 -68.5t-78 -53.5t-91.5 -24q-58 0 -118 22.5t-115.5 45t-104.5 22.5q-37 0 -77 -21t-62 -42l-21 -21zM565 598h316l-76 494z" />
<glyph unicode="&#xc4;" d="M-78 0l29 180l137 47l629 1203l315 14l236 -1223l118 -41l-30 -180h-606l28 178l162 51l-25 150h-452l-74 -156l141 -45l-28 -178h-580zM565 598h316l-76 494zM594 1700q0 82 45 139t125 57q59 0 93 -33t34 -91q0 -81 -47.5 -138t-126.5 -57q-57 0 -90 33t-33 90z M1030 1700q0 82 45 139t123 57q59 0 93 -33t34 -91q0 -82 -46.5 -138.5t-125.5 -56.5q-57 0 -90 33t-33 90z" />
<glyph unicode="&#xc5;" d="M-78 0l29 180l137 47l629 1203q-84 59 -84 169q0 131 86.5 225.5t218.5 94.5q99 0 165 -56.5t66 -154.5q0 -79 -37 -151.5t-100 -116.5l236 -1219l118 -41l-30 -180h-606l28 178l162 51l-25 150h-452l-74 -156l141 -45l-28 -178h-580zM565 598h316l-76 494zM803 1624 q0 -88 82 -88q51 0 82.5 44.5t31.5 102.5q0 89 -81 89q-51 0 -83 -45t-32 -103z" />
<glyph unicode="&#xc6;" horiz-adv-x="1912" d="M-78 0l29 178l145 51l615 977l-158 58l27 170l505 10h838l-63 -395h-164l-27 153h-344l-55 -342h403l-35 -225h-405l-62 -395h359l74 172h184l-68 -412h-1036l31 178l153 51l27 164h-389l-109 -172l121 -43l-31 -178h-565zM633 614h293l96 588h-33z" />
<glyph unicode="&#xc7;" horiz-adv-x="1320" d="M113 510q0 278 102.5 496.5t286 340t416.5 121.5q108 0 219 -24t168 -48l57 -24l-62 -389h-170l-26 193q-111 36 -221 36q-104 0 -189.5 -56t-139 -148.5t-82 -206.5t-28.5 -234q0 -151 75.5 -240t195.5 -89q196 0 401 143l109 -172q-211 -177 -434 -221l-13 -78 q67 -14 106.5 -54.5t39.5 -101.5q0 -103 -81 -168t-192 -65q-62 0 -120.5 15.5t-86.5 30.5l-28 15l78 113q65 -39 141 -39q48 0 80.5 22.5t32.5 63.5q0 39 -41.5 59.5t-112.5 20.5l24 151q-231 9 -368 154.5t-137 382.5z" />
<glyph unicode="&#xc8;" horiz-adv-x="1251" d="M14 0l29 178l160 49l153 977l-141 60l27 170l460 10h560l-64 -395h-164l-26 149h-344l-56 -338h404l-35 -225h-406l-61 -389h358l74 166h184l-67 -412h-1045zM502 1739l96 221l496 -268l-78 -164z" />
<glyph unicode="&#xc9;" horiz-adv-x="1251" d="M14 0l29 178l160 49l153 977l-141 60l27 170l460 10h560l-64 -395h-164l-26 149h-344l-56 -338h404l-35 -225h-406l-61 -389h358l74 166h184l-67 -412h-1045zM600 1675l502 267l108 -213l-532 -218z" />
<glyph unicode="&#xca;" horiz-adv-x="1247" d="M14 0l29 178l160 49l153 977l-141 60l27 170l456 10h559l-63 -395h-164l-26 153h-345l-55 -342h404l-35 -225h-406l-61 -395h358l74 172h184l-67 -412h-1041zM432 1659l352 280l179 15l266 -295l-115 -133l-260 205l-336 -205z" />
<glyph unicode="&#xcb;" horiz-adv-x="1251" d="M14 0l29 178l160 49l153 977l-141 60l27 170l460 10h560l-64 -395h-164l-26 149h-344l-56 -338h404l-35 -225h-406l-61 -389h358l74 166h184l-67 -412h-1045zM459 1700q0 82 45 139t125 57q59 0 93 -33t34 -91q0 -81 -47.5 -138t-126.5 -57q-57 0 -90 33t-33 90z M895 1700q0 82 45 139t123 57q59 0 93 -33t34 -91q0 -82 -46.5 -138.5t-125.5 -56.5q-57 0 -90 33t-33 90z" />
<glyph unicode="&#xcc;" horiz-adv-x="774" d="M-6 0l29 178l159 49l156 977l-141 60l26 170l611 10l-29 -180l-160 -62l-156 -975l144 -49l-29 -178h-610zM246 1739l96 221l496 -268l-78 -164z" />
<glyph unicode="&#xcd;" horiz-adv-x="774" d="M-6 0l29 178l159 49l156 977l-141 60l26 170l611 10l-29 -180l-160 -62l-156 -975l144 -49l-29 -178h-610zM322 1675l501 267l109 -213l-533 -218z" />
<glyph unicode="&#xce;" horiz-adv-x="778" d="M-6 0l29 178l159 49l156 977l-141 60l26 170l611 10l-29 -180l-160 -62l-156 -975l144 -49l-29 -178h-610zM184 1653l328 280l178 15l242 -295l-115 -133l-235 204l-312 -204z" />
<glyph unicode="&#xcf;" horiz-adv-x="776" d="M-4 0l29 178l159 49l156 977l-141 60l26 170l611 10l-29 -180l-160 -62l-155 -975l143 -49l-29 -178h-610zM225 1700q0 82 45 139t125 57q59 0 93 -33t34 -91q0 -81 -47.5 -138t-126.5 -57q-57 0 -90 33t-33 90zM662 1700q0 82 44.5 139t122.5 57q59 0 93 -33t34 -91 q0 -82 -46.5 -138.5t-125.5 -56.5q-57 0 -89.5 33t-32.5 90z" />
<glyph unicode="&#xd0;" horiz-adv-x="1474" d="M4 0l29 178l155 51l66 406h-150l37 225h148l55 344l-139 60l26 170l455 10h197q245 0 387.5 -132.5t142.5 -379.5q0 -221 -60 -398t-169 -293.5t-260.5 -178.5t-335.5 -62h-584zM494 240h139q111 0 200.5 56.5t145 152t84.5 216.5t29 255q0 282 -248 282h-197l-55 -342 h242l-31 -225h-246z" />
<glyph unicode="&#xd1;" horiz-adv-x="1570" d="M-16 0l28 178l160 49l154 977l-142 60l27 170l475 10l391 -955l113 715l-133 60l26 170l568 10l-29 -180l-158 -60l-190 -1204h-318l-395 950l-117 -723l138 -49l-29 -178h-569zM539 1681q5 9 14.5 24t39.5 52.5t62 66.5t79 53t93 24q58 0 115.5 -23.5t110.5 -46.5 t102 -23q35 0 72.5 21.5t57.5 42.5l20 22l92 -79q-5 -9 -14 -24t-38.5 -54t-61 -68.5t-78 -53.5t-91.5 -24q-58 0 -118 22.5t-115.5 45t-104.5 22.5q-37 0 -77 -21t-61 -42l-22 -21z" />
<glyph unicode="&#xd2;" horiz-adv-x="1499" d="M111 504q0 156 35 300.5t103.5 264.5t164 209.5t222.5 139.5t273 50q251 0 392 -142.5t141 -393.5q0 -196 -59 -371.5t-163.5 -305.5t-258.5 -206t-334 -76q-247 0 -381.5 137.5t-134.5 393.5zM438 528q0 -144 60.5 -221.5t179.5 -77.5q103 0 188.5 66t138 169.5 t81 222.5t28.5 233q0 292 -246 292q-104 0 -189.5 -66.5t-136 -171t-77.5 -220.5t-27 -226zM662 1739l96 221l495 -268l-77 -164z" />
<glyph unicode="&#xd3;" horiz-adv-x="1499" d="M111 504q0 156 35 300.5t103.5 264.5t164 209.5t222.5 139.5t273 50q251 0 392 -142.5t141 -393.5q0 -196 -59 -371.5t-163.5 -305.5t-258.5 -206t-334 -76q-247 0 -381.5 137.5t-134.5 393.5zM438 528q0 -144 60.5 -221.5t179.5 -77.5q103 0 188.5 66t138 169.5 t81 222.5t28.5 233q0 292 -246 292q-104 0 -189.5 -66.5t-136 -171t-77.5 -220.5t-27 -226zM713 1675l501 267l109 -213l-532 -218z" />
<glyph unicode="&#xd4;" horiz-adv-x="1499" d="M111 504q0 156 35 300.5t103.5 264.5t164 209.5t222.5 139.5t273 50q251 0 392 -142.5t141 -393.5q0 -196 -59 -371.5t-163.5 -305.5t-258.5 -206t-334 -76q-247 0 -381.5 137.5t-134.5 393.5zM438 528q0 -144 60.5 -221.5t179.5 -77.5q103 0 188.5 66t138 169.5 t81 222.5t28.5 233q0 292 -246 292q-104 0 -189.5 -66.5t-136 -171t-77.5 -220.5t-27 -226zM547 1653l352 280l178 15l266 -295l-114 -133l-260 204l-336 -204z" />
<glyph unicode="&#xd5;" horiz-adv-x="1499" d="M111 504q0 156 35 300.5t103.5 264.5t164 209.5t222.5 139.5t273 50q251 0 392 -142.5t141 -393.5q0 -196 -59 -371.5t-163.5 -305.5t-258.5 -206t-334 -76q-247 0 -381.5 137.5t-134.5 393.5zM438 528q0 -144 60.5 -221.5t179.5 -77.5q103 0 188.5 66t138 169.5 t81 222.5t28.5 233q0 292 -246 292q-104 0 -189.5 -66.5t-136 -171t-77.5 -220.5t-27 -226zM535 1681q5 9 14.5 24t39.5 52.5t62 66.5t79 53t93 24q58 0 115.5 -23.5t110.5 -46.5t102 -23q35 0 72 21.5t57 42.5l20 22l93 -79q-5 -9 -14 -24t-38.5 -54t-61 -68.5t-78 -53.5 t-91.5 -24q-58 0 -118 22.5t-115.5 45t-104.5 22.5q-37 0 -77 -21t-61 -42l-22 -21z" />
<glyph unicode="&#xd6;" horiz-adv-x="1499" d="M111 504q0 156 35 300.5t103.5 264.5t164 209.5t222.5 139.5t273 50q251 0 392 -142.5t141 -393.5q0 -196 -59 -371.5t-163.5 -305.5t-258.5 -206t-334 -76q-247 0 -381.5 137.5t-134.5 393.5zM438 528q0 -144 60.5 -221.5t179.5 -77.5q103 0 188.5 66t138 169.5 t81 222.5t28.5 233q0 292 -246 292q-104 0 -189.5 -66.5t-136 -171t-77.5 -220.5t-27 -226zM627 1700q0 82 45 139t125 57q59 0 93 -33t34 -91q0 -81 -47.5 -138t-126.5 -57q-57 0 -90 33t-33 90zM1063 1700q0 82 45 139t123 57q59 0 93 -33t34 -91q0 -82 -46.5 -138.5 t-125.5 -56.5q-57 0 -90 33t-33 90z" />
<glyph unicode="&#xd7;" horiz-adv-x="1288" d="M102 207l392 346l-281 348l195 172l280 -348l393 348l140 -170l-392 -350l281 -346l-195 -174l-280 348l-393 -348z" />
<glyph unicode="&#xd8;" horiz-adv-x="1511" d="M31 -121l198 262q-108 136 -108 363q0 156 34.5 300.5t102.5 264.5t162.5 209.5t221.5 139.5t273 50q154 0 267 -55l157 211l160 -104l-170 -226q115 -137 115 -352q0 -269 -99 -488t-285.5 -349t-426.5 -130q-145 0 -254 50l-189 -250zM449 567q0 -59 16 -112l545 729 q-52 28 -136 28q-97 0 -179 -56.5t-134.5 -149t-82 -206.5t-29.5 -233zM555 260q54 -31 129 -31q123 0 222.5 90t152.5 235.5t53 313.5q0 66 -12 119z" />
<glyph unicode="&#xd9;" horiz-adv-x="1548" d="M174 1264l27 170l606 10l-29 -180l-153 -62l-105 -649q-10 -68 -10 -115q0 -104 49.5 -158.5t171.5 -54.5q139 0 208 82t99 273l99 622l-144 62l27 170l608 10l-29 -180l-157 -62l-94 -604q-24 -151 -70.5 -262.5t-124.5 -194t-194 -124.5t-271 -42q-258 0 -372.5 102.5 t-114.5 307.5q0 85 14 168l104 649zM559 1739l96 221l496 -268l-78 -164z" />
<glyph unicode="&#xda;" horiz-adv-x="1548" d="M174 1264l27 170l606 10l-29 -180l-153 -62l-105 -649q-10 -68 -10 -115q0 -104 49.5 -158.5t171.5 -54.5q139 0 208 82t99 273l99 622l-144 62l27 170l608 10l-29 -180l-157 -62l-94 -604q-24 -151 -70.5 -262.5t-124.5 -194t-194 -124.5t-271 -42q-258 0 -372.5 102.5 t-114.5 307.5q0 85 14 168l104 649zM692 1675l502 267l109 -213l-533 -218z" />
<glyph unicode="&#xdb;" horiz-adv-x="1505" d="M154 1264l26 170l606 10l-28 -180l-154 -62l-104 -649q-11 -75 -11 -115q0 -104 50 -158.5t172 -54.5q139 0 208 82t99 273l98 622l-143 62l26 170l609 10l-29 -180l-158 -62l-94 -604q-24 -151 -70.5 -262.5t-124 -194t-193.5 -124.5t-271 -42q-258 0 -373 102.5 t-115 307.5q0 79 15 168l104 649zM516 1653l352 280l179 15l266 -295l-115 -133l-260 204l-336 -204z" />
<glyph unicode="&#xdc;" horiz-adv-x="1507" d="M154 1264l26 170l606 10l-28 -180l-154 -62l-104 -649q-11 -75 -11 -115q0 -104 50 -158.5t172 -54.5q139 0 208 82t99 273l98 622l-143 62l26 170l609 10l-29 -180l-158 -62l-94 -604q-24 -151 -70.5 -262.5t-124 -194t-193.5 -124.5t-271 -42q-258 0 -373 102.5 t-115 307.5q0 79 15 168l104 649zM586 1700q0 82 45 139t125 57q59 0 93 -33t34 -91q0 -81 -47.5 -138t-126.5 -57q-57 0 -90 33t-33 90zM1022 1700q0 82 45 139t123 57q59 0 93 -33t34 -91q0 -82 -46.5 -138.5t-125.5 -56.5q-57 0 -90 33t-33 90z" />
<glyph unicode="&#xdd;" horiz-adv-x="1263" d="M92 1264l27 170l385 10l184 -674l260 449l-139 45l27 170l579 10l-29 -180l-151 -58l-469 -735l-39 -242l143 -51l-28 -178h-606l28 178l160 51l43 275l-219 715zM633 1675l502 267l108 -213l-532 -218z" />
<glyph unicode="&#xde;" horiz-adv-x="1253" d="M-4 0l27 178l159 51l154 975l-139 60l26 170l606 10l-28 -180l-160 -62l-12 -65h200q193 0 300.5 -79.5t107.5 -234.5q0 -158 -78.5 -271.5t-211.5 -168.5t-306 -55h-141l-15 -99l142 -51l-29 -178h-602zM537 547h127q125 0 196.5 60t71.5 167q0 69 -44.5 103t-139.5 34 h-154z" />
<glyph unicode="&#xdf;" horiz-adv-x="1492" d="M-225 -475l35 184h124q176 0 205 193l156 979h-209l31 178l211 26l8 54q32 215 184 344t377 129q212 0 328 -76.5t116 -216.5q0 -77 -30.5 -141.5t-74.5 -106.5t-87.5 -79t-74 -76.5t-30.5 -81.5q0 -35 21 -64.5t54.5 -51t74 -43t81.5 -46.5t74.5 -55.5t54.5 -76 t21 -102.5q0 -119 -68.5 -215t-181.5 -148t-245 -52q-80 0 -163.5 12t-126.5 24l-44 13l49 325h174l6 -141q39 -18 113 -18q89 0 133.5 39.5t44.5 97.5q0 33 -21 61.5t-54.5 50t-74 43t-81.5 46.5t-74.5 54t-54.5 72.5t-21 96.5q0 61 17 112.5t43.5 86.5t59.5 65.5t65.5 56 t59 50.5t43.5 57t17 69q0 133 -174 133q-93 0 -156.5 -63.5t-82.5 -177.5l-195 -1208q-34 -205 -147.5 -322t-309.5 -117q-39 0 -89 7t-80 13z" />
<glyph unicode="&#xe0;" horiz-adv-x="1259" d="M53 350q0 149 35 276.5t94.5 218t139.5 155t171 95.5t187 31q63 0 123 -19t89 -37l28 -19l59 55h186l-143 -893l158 -31l-27 -162l-440 -20l71 303q-7 -14 -24.5 -42t-60 -79.5t-90.5 -94t-119.5 -75t-143.5 -32.5q-132 0 -212.5 105.5t-80.5 264.5zM356 1493l101 229 l532 -346l-78 -153zM360 389q0 -81 27.5 -125.5t73.5 -44.5q57 0 113.5 50.5t96 123t70.5 145t47 122.5l15 51l31 170q-60 24 -150 24q-141 0 -232.5 -146.5t-91.5 -369.5z" />
<glyph unicode="&#xe1;" horiz-adv-x="1259" d="M53 350q0 149 35 276.5t94.5 218t139.5 155t171 95.5t187 31q63 0 123 -19t89 -37l28 -19l59 55h186l-143 -893l158 -31l-27 -162l-440 -20l71 303q-7 -14 -24.5 -42t-60 -79.5t-90.5 -94t-119.5 -75t-143.5 -32.5q-132 0 -212.5 105.5t-80.5 264.5zM360 389 q0 -81 27.5 -125.5t73.5 -44.5q57 0 113.5 50.5t96 123t70.5 145t47 122.5l15 51l31 170q-60 24 -150 24q-141 0 -232.5 -146.5t-91.5 -369.5zM551 1378l94 -149l522 289l-106 213z" />
<glyph unicode="&#xe2;" horiz-adv-x="1239" d="M43 350q0 185 52.5 336t140.5 245t198.5 144.5t231.5 50.5q63 0 122.5 -19t87.5 -37l29 -19l60 55h180l-144 -893l158 -31l-26 -162l-435 -20l72 303q-7 -14 -24.5 -42t-60 -79.5t-90.5 -94t-119.5 -75t-143.5 -32.5q-132 0 -210.5 105t-78.5 265zM299 1401l352 280 l178 15l267 -295l-115 -133l-260 205l-336 -205zM346 389q0 -81 27 -125.5t73 -44.5q57 0 113.5 50.5t96 123t70.5 145t46 122.5l16 51l31 170q-59 24 -149 24q-141 0 -232.5 -146.5t-91.5 -369.5z" />
<glyph unicode="&#xe3;" horiz-adv-x="1239" d="M43 350q0 185 52.5 336t140.5 245t198.5 144.5t231.5 50.5q63 0 122.5 -19t87.5 -37l29 -19l60 55h180l-144 -893l158 -31l-26 -162l-435 -20l72 303q-7 -14 -24.5 -42t-60 -79.5t-90.5 -94t-119.5 -75t-143.5 -32.5q-132 0 -210.5 105t-78.5 265zM299 1389 q5 9 14.5 23.5t40 52.5t62 67t79 52.5t93.5 23.5q58 0 115 -23t110 -46t102 -23q35 0 72.5 21.5t57.5 42.5l20 22l92 -80q-5 -9 -14 -24t-38.5 -54t-61 -68.5t-78 -53.5t-91.5 -24q-47 0 -94.5 14t-81.5 31.5t-78 31.5t-83 14q-37 0 -77 -21t-62 -42l-21 -21zM346 389 q0 -81 27 -125.5t73 -44.5q57 0 113.5 50.5t96 123t70.5 145t46 122.5l16 51l31 170q-59 24 -149 24q-141 0 -232.5 -146.5t-91.5 -369.5z" />
<glyph unicode="&#xe4;" horiz-adv-x="1259" d="M53 350q0 149 35 276.5t94.5 218t139.5 155t171 95.5t187 31q63 0 123 -19t89 -37l28 -19l59 55h186l-143 -893l158 -31l-27 -162l-440 -20l71 303q-7 -14 -24.5 -42t-60 -79.5t-90.5 -94t-119.5 -75t-143.5 -32.5q-132 0 -212.5 105.5t-80.5 264.5zM360 389 q0 -81 27.5 -125.5t73.5 -44.5q57 0 113.5 50.5t96 123t70.5 145t47 122.5l15 51l31 170q-60 24 -150 24q-141 0 -232.5 -146.5t-91.5 -369.5zM379 1393q0 82 45 139t125 57q59 0 93 -33.5t34 -91.5q0 -81 -47.5 -137.5t-126.5 -56.5q-57 0 -90 33t-33 90zM815 1393 q0 82 45 139t123 57q59 0 93 -33.5t34 -91.5q0 -81 -46.5 -137.5t-125.5 -56.5q-57 0 -90 33t-33 90z" />
<glyph unicode="&#xe5;" horiz-adv-x="1259" d="M53 350q0 149 35 276.5t94.5 218t139.5 155t171 95.5t187 31q63 0 123 -19t89 -37l28 -19l59 55h186l-143 -893l158 -31l-27 -162l-440 -20l71 303q-7 -14 -24.5 -42t-60 -79.5t-90.5 -94t-119.5 -75t-143.5 -32.5q-132 0 -212.5 105.5t-80.5 264.5zM360 389 q0 -81 27.5 -125.5t73.5 -44.5q57 0 113.5 50.5t96 123t70.5 145t47 122.5l15 51l31 170q-60 24 -150 24q-141 0 -232.5 -146.5t-91.5 -369.5zM580 1436q0 131 86.5 225t218.5 94q99 0 165 -56.5t66 -154.5q0 -129 -88.5 -225t-220.5 -96q-98 0 -162.5 59t-64.5 154z M750 1460q0 -88 81 -88q51 0 83 45t32 103q0 88 -82 88q-51 0 -82.5 -45t-31.5 -103z" />
<glyph unicode="&#xe6;" horiz-adv-x="1660" d="M29 246q0 194 139 292.5t379 98.5h145l19 115q4 24 4 41q0 112 -131 112q-46 0 -92.5 -6.5t-69.5 -12.5l-23 -7l-51 -131h-170l35 296q26 9 71 22.5t161.5 36.5t207.5 23q240 0 281 -135q154 135 342 135q172 0 273.5 -80t101.5 -212q0 -179 -183 -283.5t-518 -108.5 q0 -119 42.5 -173t148.5 -54q34 0 73 6t76 16.5t65 19t57.5 19.5t35.5 13l86 -152q-29 -20 -71 -42.5t-105.5 -50.5t-143.5 -46t-157 -18q-131 0 -220.5 51t-129.5 147q-73 -87 -177.5 -141.5t-220.5 -54.5q-128 0 -204 71t-76 193zM322 307q0 -42 31.5 -72t74.5 -30 q87 0 157 82.5t81 175.5h-115q-229 0 -229 -156zM973 623q189 4 285 51.5t96 122.5q0 98 -117 98q-90 0 -161 -76t-103 -196z" />
<glyph unicode="&#xe7;" horiz-adv-x="993" d="M57 375q0 339 176 545t459 206q32 0 63.5 -3.5t60.5 -10t52 -12.5t49 -16t38.5 -15.5t33 -14.5t21.5 -10l-56 -323h-180l-6 151q-41 19 -109 19q-74 0 -133.5 -43.5t-94.5 -114.5t-53 -154t-18 -169q0 -93 45 -144t123 -51q24 0 50 3.5t52 10t47 13t45.5 16.5t37.5 15.5 t33.5 15t23.5 10.5l90 -152q-150 -101 -289 -143l-16 -94q67 -14 106.5 -54.5t39.5 -101.5q0 -103 -81 -168t-192 -65q-62 0 -120.5 15.5t-86.5 30.5l-28 15l77 113q66 -39 142 -39q48 0 80 22.5t32 63.5q0 39 -41 59.5t-112 20.5l24 158q-178 5 -281.5 106t-103.5 289z" />
<glyph unicode="&#xe8;" horiz-adv-x="1069" d="M53 358q0 166 49.5 310.5t133 244t196.5 156.5t238 57q181 0 285 -79t104 -213q0 -177 -187.5 -286t-519.5 -112q0 -126 47.5 -173.5t145.5 -47.5q42 0 95 10.5t87.5 21t79.5 26t49 16.5l86 -152q-41 -28 -102.5 -60t-170.5 -64.5t-208 -32.5q-187 0 -297.5 100 t-110.5 278zM377 616q186 4 285.5 55.5t99.5 125.5q0 98 -117 98q-91 0 -164 -77.5t-104 -201.5zM377 1493l100 229l533 -346l-78 -153z" />
<glyph unicode="&#xe9;" horiz-adv-x="1069" d="M53 358q0 166 49.5 310.5t133 244t196.5 156.5t238 57q181 0 285 -79t104 -213q0 -177 -187.5 -286t-519.5 -112q0 -126 47.5 -173.5t145.5 -47.5q42 0 95 10.5t87.5 21t79.5 26t49 16.5l86 -152q-41 -28 -102.5 -60t-170.5 -64.5t-208 -32.5q-187 0 -297.5 100 t-110.5 278zM377 616q186 4 285.5 55.5t99.5 125.5q0 98 -117 98q-91 0 -164 -77.5t-104 -201.5zM500 1378l94 -149l522 289l-106 213z" />
<glyph unicode="&#xea;" horiz-adv-x="1058" d="M53 358q0 166 49.5 310.5t133 244t196.5 156.5t238 57q181 0 285 -79t104 -213q0 -177 -187.5 -286t-519.5 -112q0 -126 47.5 -173.5t145.5 -47.5q42 0 95 10.5t87.5 21t79.5 26t49 16.5l86 -152q-41 -28 -102.5 -60t-170.5 -64.5t-208 -32.5q-187 0 -297.5 100 t-110.5 278zM287 1401l352 280l178 15l266 -295l-114 -133l-260 205l-336 -205zM377 616q186 4 285.5 55.5t99.5 125.5q0 98 -117 98q-91 0 -164 -77.5t-104 -201.5z" />
<glyph unicode="&#xeb;" horiz-adv-x="1069" d="M53 358q0 166 49.5 310.5t133 244t196.5 156.5t238 57q181 0 285 -79t104 -213q0 -177 -187.5 -286t-519.5 -112q0 -126 47.5 -173.5t145.5 -47.5q42 0 95 10.5t87.5 21t79.5 26t49 16.5l86 -152q-41 -28 -102.5 -60t-170.5 -64.5t-208 -32.5q-187 0 -297.5 100 t-110.5 278zM360 1393q0 82 45 139t125 57q59 0 93 -33.5t34 -91.5q0 -81 -47.5 -137.5t-126.5 -56.5q-57 0 -90 33t-33 90zM377 616q186 4 285.5 55.5t99.5 125.5q0 98 -117 98q-91 0 -164 -77.5t-104 -201.5zM797 1393q0 82 45 139t123 57q59 0 93 -33.5t34 -91.5 q0 -81 -46.5 -137.5t-125.5 -56.5q-57 0 -90 33t-33 90z" />
<glyph unicode="&#xec;" horiz-adv-x="675" d="M90 926l29 164l452 16l-141 -891l156 -31l-27 -164l-450 -20l139 885zM109 1493l100 229l532 -346l-77 -153z" />
<glyph unicode="&#xed;" horiz-adv-x="675" d="M90 926l29 164l452 16l-141 -891l156 -31l-27 -164l-450 -20l139 885zM262 1378l94 -149l523 289l-107 213z" />
<glyph unicode="&#xee;" horiz-adv-x="694" d="M41 1395l336 280l178 15l252 -295l-121 -133l-240 204l-313 -204zM102 926l29 164l453 16l-142 -891l156 -31l-27 -164l-450 -20l139 885z" />
<glyph unicode="&#xef;" horiz-adv-x="675" d="M90 926l29 164l452 16l-141 -891l156 -31l-27 -164l-450 -20l139 885zM123 1393q0 82 45 139t125 57q59 0 93 -33.5t34 -91.5q0 -81 -47.5 -137.5t-126.5 -56.5q-57 0 -90 33t-33 90zM520 1393q0 82 45 139t123 57q59 0 93 -33.5t34 -91.5q0 -81 -46.5 -137.5 t-125.5 -56.5q-57 0 -90 33t-33 90z" />
<glyph unicode="&#xf0;" horiz-adv-x="1155" d="M53 365q0 298 164.5 483.5t423.5 185.5q45 0 89 -13t66 -25l21 -13q-22 151 -123 258l-250 -135l-88 160l185 100q-68 40 -158 72l109 178q156 -42 278 -125l234 125l90 -160l-183 -98q181 -213 181 -561q0 -250 -69 -433.5t-208.5 -286t-337.5 -102.5t-311 102.5 t-113 287.5zM367 385q0 -176 155 -176q66 0 116.5 38.5t79 101.5t42.5 134t14 146q0 170 -162 170q-62 0 -111 -37t-77 -98t-42.5 -132t-14.5 -147z" />
<glyph unicode="&#xf1;" horiz-adv-x="1310" d="M90 926l27 164l454 16l-69 -328q9 18 25 45t60 85t92.5 102.5t122 80t148.5 35.5q116 0 171 -66.5t55 -182.5q0 -44 -11 -119l-88 -543l154 -31l-27 -164l-452 -20l112 700q8 54 8 74q0 100 -77 100q-51 0 -103 -44.5t-91.5 -109.5t-72 -139.5t-51 -135.5t-22.5 -95 l-60 -350h-289l142 885zM342 1384q5 9 14 24.5t38.5 54.5t60.5 68.5t77.5 54t92.5 24.5q58 0 112 -23.5t104 -47t99 -23.5q35 0 72.5 21.5t57.5 42.5l20 22l92 -95q-5 -9 -14 -24t-38.5 -53.5t-61 -68t-78 -53.5t-91.5 -24q-58 0 -113 22.5t-106 45t-100 22.5q-37 0 -77 -21 t-61 -42l-22 -21z" />
<glyph unicode="&#xf2;" horiz-adv-x="1185" d="M61 410q0 325 170 520.5t449 195.5q210 0 326 -115.5t116 -316.5q0 -324 -171 -519t-451 -195q-208 0 -323.5 112.5t-115.5 317.5zM369 426q0 -201 166 -201q79 0 136.5 46t87 121t43 153.5t13.5 161.5q-3 86 -47.5 130t-122.5 44q-125 0 -200.5 -131.5t-75.5 -323.5z M377 1493l100 229l533 -346l-78 -153z" />
<glyph unicode="&#xf3;" horiz-adv-x="1185" d="M61 410q0 325 170 520.5t449 195.5q210 0 326 -115.5t116 -316.5q0 -324 -171 -519t-451 -195q-208 0 -323.5 112.5t-115.5 317.5zM369 426q0 -201 166 -201q79 0 136.5 46t87 121t43 153.5t13.5 161.5q-3 86 -47.5 130t-122.5 44q-125 0 -200.5 -131.5t-75.5 -323.5z M489 1378l95 -149l522 289l-107 213z" />
<glyph unicode="&#xf4;" horiz-adv-x="1175" d="M57 379q0 337 177 542t462 205q202 0 312 -106.5t110 -294.5q0 -336 -178.5 -540.5t-464.5 -204.5q-200 0 -309 103.5t-109 295.5zM309 1378l353 281l178 14l266 -295l-115 -133l-260 205l-336 -205zM360 399q0 -184 158 -184q87 0 155.5 65.5t105 177t36.5 249.5 q0 184 -162 184q-86 0 -154 -69t-103.5 -180.5t-35.5 -242.5z" />
<glyph unicode="&#xf5;" horiz-adv-x="1175" d="M57 379q0 337 177 542t462 205q202 0 312 -106.5t110 -294.5q0 -336 -178.5 -540.5t-464.5 -204.5q-200 0 -309 103.5t-109 295.5zM291 1391q5 9 14.5 23.5t40 52.5t62 67t79 52.5t93.5 23.5q58 0 115 -23t110 -46t102 -23q35 0 72.5 21.5t57.5 42.5l20 22l92 -80 q-5 -9 -14 -24t-38.5 -54t-61 -68.5t-78 -53.5t-91.5 -24q-58 0 -118 23t-115.5 45.5t-104.5 22.5q-37 0 -77 -21t-61 -42l-21 -21zM360 399q0 -184 158 -184q87 0 155.5 65.5t105 177t36.5 249.5q0 184 -162 184q-86 0 -154 -69t-103.5 -180.5t-35.5 -242.5z" />
<glyph unicode="&#xf6;" horiz-adv-x="1185" d="M61 410q0 325 170 520.5t449 195.5q210 0 326 -115.5t116 -316.5q0 -324 -171 -519t-451 -195q-208 0 -323.5 112.5t-115.5 317.5zM360 1393q0 82 45 139t125 57q59 0 93 -33.5t34 -91.5q0 -81 -47.5 -137.5t-126.5 -56.5q-57 0 -90 33t-33 90zM369 426q0 -201 166 -201 q79 0 136.5 46t87 121t43 153.5t13.5 161.5q-3 86 -47.5 130t-122.5 44q-125 0 -200.5 -131.5t-75.5 -323.5zM797 1393q0 82 45 139t123 57q59 0 93 -33.5t34 -91.5q0 -81 -46.5 -137.5t-125.5 -56.5q-57 0 -90 33t-33 90z" />
<glyph unicode="&#xf7;" horiz-adv-x="1273" d="M102 426l37 236h1043l-37 -236h-1043zM395 63q0 98 52.5 164t150.5 66q70 0 112 -40t42 -108q0 -98 -54.5 -164.5t-152.5 -66.5q-69 0 -109.5 40t-40.5 109zM535 944q0 99 51 164.5t149 65.5q70 0 112 -40t42 -108q0 -98 -53.5 -164.5t-151.5 -66.5q-69 0 -109 40 t-40 109z" />
<glyph unicode="&#xf8;" horiz-adv-x="1200" d="M-20 -154l184 250q-96 104 -96 283q0 337 176.5 542t460.5 205q103 0 194 -32l164 223l137 -86l-166 -223q99 -110 99 -277q0 -339 -179 -545t-467 -206q-96 0 -188 30l-184 -250zM377 428q0 -27 2 -39l360 488q-40 14 -73 14q-85 0 -152 -65t-102 -170t-35 -228z M459 227q30 -12 71 -12q126 0 209.5 127t83.5 320q0 9 -1 27.5t-1 27.5z" />
<glyph unicode="&#xf9;" horiz-adv-x="1310" d="M80 926l26 164l455 16q-114 -707 -118 -752q-1 -12 -1 -22q0 -103 78 -103q51 0 101.5 41t86 97.5t68 128t48.5 119t26 85.5l68 406h288l-141 -893l156 -31l-27 -162l-453 -20l70 326q-9 -18 -24.5 -44.5t-59.5 -84.5t-92 -102t-121.5 -79.5t-148.5 -35.5 q-226 0 -226 247q0 43 12.5 129t57.5 355q18 109 29 174zM371 1493l100 229l533 -346l-78 -153z" />
<glyph unicode="&#xfa;" horiz-adv-x="1310" d="M80 926l26 164l455 16q-114 -707 -118 -752q-1 -12 -1 -22q0 -103 78 -103q51 0 101.5 41t86 97.5t68 128t48.5 119t26 85.5l68 406h288l-141 -893l156 -31l-27 -162l-453 -20l70 326q-9 -18 -24.5 -44.5t-59.5 -84.5t-92 -102t-121.5 -79.5t-148.5 -35.5 q-226 0 -226 247q0 43 12.5 129t57.5 355q18 109 29 174zM520 1378l94 -149l523 289l-107 213z" />
<glyph unicode="&#xfb;" horiz-adv-x="1310" d="M80 926l26 164l455 16l-112 -703q-7 -47 -7 -71q0 -103 78 -103q51 0 101.5 41t86 97.5t68 128t48.5 119t26 85.5l68 406h288l-141 -893l156 -31l-27 -162l-453 -20l70 326q-9 -18 -24.5 -44.5t-59.5 -84.5t-92 -102t-121.5 -79.5t-148.5 -35.5q-226 0 -226 247 q0 62 11 121l88 537zM307 1401l352 280l179 15l266 -295l-115 -133l-260 205l-336 -205z" />
<glyph unicode="&#xfc;" horiz-adv-x="1310" d="M80 926l26 164l455 16q-114 -707 -118 -752q-1 -12 -1 -22q0 -103 78 -103q51 0 101.5 41t86 97.5t68 128t48.5 119t26 85.5l68 406h288l-141 -893l156 -31l-27 -162l-453 -20l70 326q-9 -18 -24.5 -44.5t-59.5 -84.5t-92 -102t-121.5 -79.5t-148.5 -35.5 q-226 0 -226 247q0 43 12.5 129t57.5 355q18 109 29 174zM365 1393q0 82 45 139t125 57q59 0 93 -33.5t34 -91.5q0 -81 -48 -137.5t-127 -56.5q-57 0 -89.5 33t-32.5 90zM801 1393q0 82 45 139t123 57q59 0 93 -33.5t34 -91.5q0 -81 -46.5 -137.5t-125.5 -56.5q-57 0 -90 33 t-33 90z" />
<glyph unicode="&#xfd;" horiz-adv-x="1153" d="M-63 -451l57 205q79 -10 151 -10q102 0 152 40.5t104 158.5l-241 948l-142 35l25 164l393 16l139 -668l13 -127l241 586l-127 29l25 164l514 16l-29 -174l-100 -33l-391 -866q-47 -104 -82 -174t-75 -133.5t-76 -101t-81.5 -65.5t-95.5 -39.5t-114 -11.5q-55 0 -120 10 t-103 20zM481 1378l94 -149l523 289l-107 213z" />
<glyph unicode="&#xfe;" horiz-adv-x="1255" d="M-123 -471l27 164l159 47l259 1626l-156 41l27 164l456 16l-78 -481l-88 -311q10 20 24 45.5t55 81t86 96.5t115 74.5t144 33.5q140 0 216.5 -108t76.5 -270q0 -145 -35.5 -270t-97.5 -214.5t-144 -154t-175.5 -96t-192.5 -31.5q-77 0 -158 26l-43 -268l183 -47l-27 -164 h-633zM434 227q65 -22 137 -22q84 0 159 64.5t121 179.5t46 251q0 76 -29.5 128.5t-85.5 52.5q-41 0 -81 -27t-70.5 -69.5t-58 -94.5t-46.5 -104t-33.5 -94.5t-20.5 -69.5l-7 -27z" />
<glyph unicode="&#xff;" horiz-adv-x="1153" d="M-63 -451l57 205q79 -10 151 -10q102 0 152 40.5t104 158.5l-241 948l-142 35l25 164l393 16l139 -668l13 -127l241 586l-127 29l25 164l514 16l-29 -174l-100 -33l-391 -866q-47 -104 -82 -174t-75 -133.5t-76 -101t-81.5 -65.5t-95.5 -39.5t-114 -11.5q-55 0 -120 10 t-103 20zM315 1393q0 82 45 139t125 57q59 0 93 -33.5t34 -91.5q0 -81 -47.5 -137.5t-126.5 -56.5q-57 0 -90 33t-33 90zM752 1393q0 82 45 139t123 57q59 0 93 -33.5t34 -91.5q0 -81 -47 -137.5t-126 -56.5q-57 0 -89.5 33t-32.5 90z" />
<glyph unicode="&#x152;" horiz-adv-x="1904" d="M113 510q0 213 60 393t165 303t248.5 191.5t308.5 68.5q66 0 182 -11t162 -11h676l-64 -395h-163l-27 153h-344l-55 -342h403l-35 -225h-405l-62 -395h359l73 172h185l-68 -412h-637q-55 0 -204.5 -12.5t-235.5 -12.5q-240 0 -381 142.5t-141 392.5zM436 516 q0 -144 69.5 -215.5t194.5 -71.5q32 0 72 2.5t64 5.5l24 3l152 962q-59 10 -131 10q-91 0 -171 -44.5t-141.5 -129.5t-97 -219.5t-35.5 -302.5z" />
<glyph unicode="&#x153;" horiz-adv-x="1794" d="M57 379q0 223 80 393t223.5 262t329.5 92q236 0 342 -168q162 168 377 168q173 0 274 -79t101 -213q0 -179 -183.5 -284t-517.5 -108q0 -114 49.5 -170.5t141.5 -56.5q34 0 73 6t76 16.5t65 19t57.5 19.5t35.5 13l86 -152q-29 -20 -71 -42.5t-105.5 -50.5t-143.5 -46 t-157 -18q-108 0 -190 42t-128 119q-160 -157 -393 -157q-202 0 -312 99.5t-110 295.5zM360 399q0 -91 40 -137.5t116 -46.5q131 0 213 140.5t82 351.5q0 184 -160 184q-86 -1 -153.5 -70t-102.5 -180t-35 -242zM1106 623q187 4 283 50.5t96 123.5q0 46 -28.5 72t-86.5 26 q-89 0 -160 -76t-104 -196z" />
<glyph unicode="&#x178;" horiz-adv-x="1263" d="M92 1264l27 170l385 10l184 -674l260 449l-139 45l27 170l579 10l-29 -180l-151 -58l-469 -735l-39 -242l143 -51l-28 -178h-606l28 178l160 51l43 275l-219 715zM426 1700q0 82 45 139t125 57q59 0 93 -33t34 -91q0 -81 -47.5 -138t-126.5 -57q-57 0 -90 33t-33 90z M862 1700q0 82 45 139t123 57q59 0 93 -33t34 -91q0 -82 -46.5 -138.5t-125.5 -56.5q-57 0 -90 33t-33 90z" />
<glyph unicode="&#x2c6;" horiz-adv-x="796" d="M0 1407l352 281l178 14l267 -295l-115 -133l-260 205l-336 -205z" />
<glyph unicode="&#x2dc;" horiz-adv-x="780" d="M0 1384q5 9 14 24.5t38.5 54.5t60.5 68.5t77.5 54t92.5 24.5q58 0 112 -23.5t104 -47t99 -23.5q35 0 72.5 21.5t57.5 42.5l20 22l92 -95q-5 -9 -14 -24t-38.5 -53.5t-61 -68t-78 -53.5t-91.5 -24q-58 0 -113 22.5t-106 45t-100 22.5q-37 0 -77 -21t-61 -42l-22 -21z" />
<glyph unicode="&#x2000;" horiz-adv-x="980" />
<glyph unicode="&#x2001;" horiz-adv-x="1960" />
<glyph unicode="&#x2002;" horiz-adv-x="980" />
<glyph unicode="&#x2003;" horiz-adv-x="1960" />
<glyph unicode="&#x2004;" horiz-adv-x="653" />
<glyph unicode="&#x2005;" horiz-adv-x="490" />
<glyph unicode="&#x2006;" horiz-adv-x="326" />
<glyph unicode="&#x2007;" horiz-adv-x="326" />
<glyph unicode="&#x2008;" horiz-adv-x="245" />
<glyph unicode="&#x2009;" horiz-adv-x="392" />
<glyph unicode="&#x200a;" horiz-adv-x="108" />
<glyph unicode="&#x2010;" horiz-adv-x="788" d="M102 430l41 256h564l-41 -256h-564z" />
<glyph unicode="&#x2011;" horiz-adv-x="788" d="M102 430l41 256h564l-41 -256h-564z" />
<glyph unicode="&#x2012;" horiz-adv-x="788" d="M102 430l41 256h564l-41 -256h-564z" />
<glyph unicode="&#x2013;" horiz-adv-x="1009" d="M-10 547l37 241h993l-39 -241h-991z" />
<glyph unicode="&#x2014;" horiz-adv-x="1900" d="M-31 547l37 241h1925l-37 -241h-1925z" />
<glyph unicode="&#x2018;" horiz-adv-x="591" d="M184 1040q0 69 36 151.5t96 162t115 141t114 117.5l108 -107q-7 -7 -17.5 -18.5t-38.5 -45t-49 -63t-38.5 -64.5t-17.5 -57q0 -23 18 -73.5t18 -87.5q0 -90 -55 -148.5t-139 -58.5q-71 0 -110.5 39.5t-39.5 111.5z" />
<glyph unicode="&#x2019;" horiz-adv-x="585" d="M143 997q18 19 45 49t72 96.5t45 102.5q0 23 -18.5 73t-18.5 87q0 91 55 149t140 58q70 0 109.5 -39.5t39.5 -110.5q0 -70 -36 -152.5t-96 -162t-114 -139.5t-114 -119z" />
<glyph unicode="&#x201a;" horiz-adv-x="589" d="M-41 -322q18 19 44.5 49t71 96.5t44.5 102.5q0 23 -18.5 73t-18.5 87q0 91 54.5 149t139.5 58q70 0 110 -39.5t40 -110.5q0 -69 -36 -151.5t-95.5 -161.5t-114.5 -140.5t-114 -117.5z" />
<glyph unicode="&#x201c;" horiz-adv-x="1052" d="M184 1040q0 69 36 151.5t96 162t115 141t114 117.5l108 -107q-7 -7 -17.5 -18.5t-38.5 -45t-49 -63t-38.5 -64.5t-17.5 -57q0 -23 18 -73.5t18 -87.5q0 -90 -55 -148.5t-139 -58.5q-71 0 -110.5 39.5t-39.5 111.5zM645 1040q0 69 36 151.5t96 162t115 141t114 117.5 l108 -107q-18 -19 -45 -49t-72 -96.5t-45 -102.5q0 -23 18.5 -73.5t18.5 -87.5q0 -90 -55 -148.5t-139 -58.5q-71 0 -110.5 39.5t-39.5 111.5z" />
<glyph unicode="&#x201d;" horiz-adv-x="1134" d="M143 997q18 19 45 49t72 96.5t45 102.5q0 23 -18.5 73t-18.5 87q0 91 55 149t140 58q70 0 109.5 -39.5t39.5 -110.5q0 -70 -36 -152.5t-96 -162t-114 -139.5t-114 -119zM604 997q18 19 45 49t72 96.5t45 102.5q0 23 -18.5 73t-18.5 87q0 91 55 149t140 58 q70 0 109.5 -39.5t39.5 -110.5q0 -70 -36 -152.5t-96 -162t-114 -139.5t-114 -119z" />
<glyph unicode="&#x201e;" horiz-adv-x="948" d="M-61 -322q18 19 44.5 49t70.5 96.5t44 102.5q0 23 -18.5 73t-18.5 87q0 91 55 149t140 58q70 0 110 -39.5t40 -110.5q0 -69 -36 -151.5t-96 -161.5t-115 -140t-114 -118zM397 -322q18 19 45 49t72 96.5t45 102.5q0 23 -18.5 73t-18.5 87q0 91 55 149t140 58 q70 0 109.5 -39.5t39.5 -110.5q0 -69 -36 -151.5t-95.5 -161.5t-114.5 -140.5t-114 -117.5z" />
<glyph unicode="&#x2022;" horiz-adv-x="1040" d="M174 645q0 160 113.5 273.5t273.5 113.5t273.5 -113.5t113.5 -273.5t-113.5 -273.5t-273.5 -113.5t-273.5 113.5t-113.5 273.5z" />
<glyph unicode="&#x2026;" horiz-adv-x="1576" d="M61 121q0 95 51 159t146 64q68 0 110 -39t42 -106q0 -95 -53 -160.5t-148 -65.5q-67 0 -107.5 40.5t-40.5 107.5zM565 121q0 95 51 159t146 64q68 0 108.5 -39t40.5 -106q0 -96 -52 -161t-148 -65q-67 0 -106.5 40t-39.5 108zM1067 121q0 95 51 159t146 64 q68 0 108.5 -39t40.5 -106q0 -95 -52.5 -160.5t-148.5 -65.5q-67 0 -106 40t-39 108z" />
<glyph unicode="&#x202f;" horiz-adv-x="392" />
<glyph unicode="&#x2039;" horiz-adv-x="765" d="M117 471l24 158l381 348l146 -119l-289 -311l184 -328l-174 -113z" />
<glyph unicode="&#x203a;" horiz-adv-x="749" d="M106 223l285 314l-180 325l174 115l268 -367l-24 -157l-377 -347z" />
<glyph unicode="&#x205f;" horiz-adv-x="490" />
<glyph unicode="&#x20ac;" horiz-adv-x="1345" d="M76 453l30 184h852l-28 -184h-389q11 -99 64 -157t151 -58q46 0 98.5 12.5t94 30.5t76.5 36t54 31l19 12l90 -159q-9 -9 -26.5 -24.5t-73 -54.5t-112.5 -68.5t-139.5 -54t-160.5 -24.5q-214 0 -332 129t-127 349h-141zM127 766l29 184h137q86 249 253.5 383.5 t399.5 134.5q89 0 186.5 -22.5t149.5 -45.5l53 -22l-67 -356h-170l-23 168q-80 22 -172 22q-214 0 -295 -262h400l-29 -184h-852z" />
<glyph unicode="&#x2122;" horiz-adv-x="1957" d="M223 1165l43 279h697l-43 -279h-115l-4 150h-115l-86 -531l98 -30l-18 -99h-389l18 99l105 30l86 531h-117l-47 -150h-113zM901 655l14 99l97 30l84 516l-84 29l16 109l297 6l111 -350l227 344l283 6l-17 -111l-94 -33l-86 -516l82 -30l-19 -99h-344l19 99l94 30l61 375 l-192 -287l-127 -14l-96 289l-60 -363l90 -30l-16 -99h-340z" />
<glyph unicode="&#x25fc;" horiz-adv-x="1105" d="M0 0v1106h1106v-1106h-1106z" />
</font>
</defs>
</svg>
