<?xml version="1.0" standalone="no"?>
<!DOCTYPE svg PUBLIC "-//W3C//DTD SVG 1.1//EN" "http://www.w3.org/Graphics/SVG/1.1/DTD/svg11.dtd" >
<svg xmlns="http://www.w3.org/2000/svg">
<metadata></metadata>
<defs>
<font id="bitteritalic" horiz-adv-x="1458" >
<font-face units-per-em="2048" ascent="1577" descent="-471" />
<missing-glyph horiz-adv-x="512" />
<glyph unicode="&#xfb01;" horiz-adv-x="1345" d="M-242 -471l25 143h147q89 0 138.5 62.5t70.5 183.5l158 1004h-193l21 133l197 20l20 123q12 78 32.5 136.5t57.5 110t90.5 83.5t133.5 50.5t186 18.5q91 0 194 -10.5t160 -20.5l57 -10l-61 -290h-137v159q-142 9 -234 9q-133 0 -196.5 -49t-79.5 -146l-27 -164h483 l197 10l-147 -921l174 -51l-17 -113h-379l148 922h-483l-154 -963q-16 -101 -46 -179.5t-80 -141.5t-127 -96.5t-177 -33.5q-36 0 -74 5t-58 11z" />
<glyph unicode="&#xfb02;" horiz-adv-x="1327" d="M-242 -471l25 143h147q89 0 139 63t70 183l158 1004h-193l21 133l194 20l21 123q13 79 31.5 136.5t53.5 109.5t87 84t131 50.5t184 18.5q93 0 208 -10.5t184 -20.5l69 -10l-223 -1390l174 -53l-20 -113h-381l225 1423q-198 11 -256 11q-131 0 -188.5 -48t-73.5 -147 l-27 -164h291l-29 -153h-286l-154 -963q-16 -101 -46 -179.5t-80 -141.5t-127 -96.5t-177 -33.5q-36 0 -74 5t-58 11z" />
<glyph horiz-adv-x="2048" />
<glyph horiz-adv-x="2048" />
<glyph horiz-adv-x="682" />
<glyph unicode="&#xd;" horiz-adv-x="614" />
<glyph unicode=" "  horiz-adv-x="512" />
<glyph unicode="&#x09;" horiz-adv-x="512" />
<glyph unicode="&#xa0;" horiz-adv-x="512" />
<glyph unicode="!" horiz-adv-x="675" d="M113 92q0 72 41.5 123t115.5 51q54 0 83.5 -28t29.5 -84q0 -71 -41.5 -122.5t-118.5 -51.5q-110 0 -110 112zM227 502l135 1034h232l-197 -1024z" />
<glyph unicode="&#x22;" horiz-adv-x="821" d="M184 1065l80 512h191l-121 -512h-150zM528 1065l80 512h193l-121 -512h-152z" />
<glyph unicode="#" horiz-adv-x="1411" d="M102 348l21 133h231l86 297h-219l21 133h237l92 318h162l-92 -318h289l94 318h160l-90 -318h225l-21 -133h-243l-88 -297h229l-20 -133h-248l-99 -348h-161l100 348h-291l-100 -348h-160l98 348h-213zM516 481h291l84 297h-289z" />
<glyph unicode="$" horiz-adv-x="1112" d="M45 57l55 342h127l6 -209q88 -40 203 -40q71 0 139 24.5t116 76t48 118.5q0 49 -30 86t-77.5 61.5t-105.5 46.5t-116 49t-105.5 62t-77.5 92t-30 131q0 88 32 160t87.5 120t125 78.5t150.5 42.5l35 228l151 10l-37 -231q68 -5 146 -24t122 -35l44 -17l-62 -324h-110 l-27 207q-96 35 -188 35q-119 0 -191 -56.5t-72 -138.5q0 -48 30 -85.5t78 -62t105.5 -47.5t115.5 -49.5t106 -59.5t78 -87t30 -123q0 -94 -33 -172.5t-90.5 -132.5t-130.5 -89.5t-157 -51.5l-46 -279h-149l43 267q-80 3 -164.5 22t-128.5 37z" />
<glyph unicode="%" horiz-adv-x="1669" d="M156 997q0 197 113.5 327t289.5 130q123 0 190.5 -68.5t67.5 -191.5q0 -192 -106.5 -324.5t-284.5 -132.5q-132 0 -201 65.5t-69 194.5zM213 0l1040 1434h181l-1041 -1434h-180zM309 1022q0 -76 39.5 -115t106.5 -39q93 0 151 79.5t58 209.5q0 166 -144 166 q-93 0 -152 -82.5t-59 -218.5zM827 240q0 197 114 326.5t290 129.5q123 0 190.5 -68.5t67.5 -191.5q0 -192 -106.5 -324t-284.5 -132q-132 0 -201.5 65.5t-69.5 194.5zM981 264q0 -76 39 -114.5t106 -38.5q93 0 151 79t58 209q0 166 -143 166q-93 0 -152 -82.5t-59 -218.5z " />
<glyph unicode="&#x26;" horiz-adv-x="1372" d="M96 317q0 155 94.5 271.5t243.5 189.5q-8 2 -21 7.5t-46 25.5t-58 45.5t-46 69.5t-21 96q0 206 143.5 319t382.5 113q81 0 173 -20t144 -40l52 -20l-52 -289h-129l-14 164q-78 31 -217 31q-127 0 -201.5 -66.5t-74.5 -173.5q0 -91 66 -145.5t171 -54.5h610l-20 -123 l-166 -41l-41 -246q-35 -214 -184 -332t-377 -118q-211 0 -311.5 89.5t-100.5 247.5zM311 348q0 -95 63 -144.5t173 -49.5q129 0 213.5 68.5t105.5 197.5l41 256h-268q-134 0 -231 -92.5t-97 -235.5z" />
<glyph unicode="'" horiz-adv-x="385" d="M176 1065l80 512h190l-120 -512h-150z" />
<glyph unicode="(" horiz-adv-x="675" d="M133 264q0 365 123.5 682.5t394.5 630.5h180q-113 -148 -197 -287t-153.5 -300.5t-105 -341.5t-35.5 -374q0 -206 41.5 -400.5t122.5 -344.5h-178q-98 183 -145.5 360.5t-47.5 374.5z" />
<glyph unicode=")" horiz-adv-x="675" d="M-158 -471q113 148 197.5 287t153.5 300.5t105 341t36 373.5q0 206 -41.5 401t-122.5 345h178q98 -183 145.5 -360.5t47.5 -374.5q0 -365 -123.5 -682.5t-394.5 -630.5h-181z" />
<glyph unicode="*" horiz-adv-x="884" d="M164 1198l72 143l227 -94l16 -65l-65 -35zM213 936l201 211l69 4l4 -70l-168 -231zM463 1247l16 254l146 4l-56 -260l-61 -45zM487 1081l29 70l68 -8l135 -203l-129 -90zM532 1182l37 63l246 101l29 -144l-260 -59z" />
<glyph unicode="+" horiz-adv-x="1263" d="M92 465l29 156h430l74 464h174l-76 -464h438l-26 -156h-439l-71 -465h-174l73 465h-432z" />
<glyph unicode="," horiz-adv-x="471" d="M-31 -238l78 -77q12 11 32.5 30.5t72.5 77.5t91.5 112.5t72 124t32.5 124.5q0 112 -110 112q-67 0 -110.5 -49t-43.5 -113q0 -27 14.5 -63t14.5 -55q0 -26 -36 -82t-72 -99z" />
<glyph unicode="-" horiz-adv-x="782" d="M100 471l29 174h520l-28 -174h-521z" />
<glyph unicode="." horiz-adv-x="532" d="M66 92q0 72 41.5 123t115.5 51q54 0 83.5 -28t29.5 -84q0 -71 -41.5 -122.5t-118.5 -51.5q-110 0 -110 112z" />
<glyph unicode="/" horiz-adv-x="917" d="M-51 0l891 1434h211l-893 -1434h-209z" />
<glyph unicode="0" horiz-adv-x="1292" d="M113 430q0 96 10 192.5t34 198.5t59.5 193t90 172.5t122 140t159.5 93t198 34.5q215 0 319.5 -120.5t104.5 -329.5q0 -93 -9 -186.5t-31 -195.5t-55.5 -193t-86.5 -174.5t-119.5 -143.5t-159 -95.5t-200.5 -35.5q-221 0 -328.5 112.5t-107.5 337.5zM328 451 q0 -158 56 -227.5t198 -69.5q102 0 184.5 82.5t130.5 210.5t73 267t25 269q0 153 -53 225t-186 72q-88 0 -162 -55t-122 -142t-81.5 -198.5t-48 -221t-14.5 -212.5z" />
<glyph unicode="1" horiz-adv-x="1011" d="M51 0l29 174h305l164 1024l-387 -231l-60 147l516 320h175l-203 -1260h309l-27 -174h-821z" />
<glyph unicode="2" horiz-adv-x="1189" d="M0 0l29 174l260 211q319 258 444 413t125 298q0 83 -59.5 133.5t-171.5 50.5q-45 0 -101 -8t-90 -16l-33 -9l-49 -203h-161l40 336q28 8 74.5 20.5t159.5 33t190 20.5q100 0 175.5 -15t134.5 -49.5t89.5 -95.5t30.5 -147q0 -191 -143.5 -386.5t-435.5 -426.5l-201 -160 h672l-29 -174h-950z" />
<glyph unicode="3" horiz-adv-x="1083" d="M-33 82l80 158q20 -10 53 -24t119.5 -38t153.5 -24q142 0 240 82.5t98 212.5q0 109 -68.5 163t-196.5 54h-155l26 163h144q88 0 155 24.5t105 66t56 89.5t18 101q0 78 -57.5 124t-166.5 46q-51 0 -105 -8t-82 -16l-28 -9l-45 -186h-164l39 319q26 8 69 20.5t155.5 33 t199.5 20.5q184 0 294 -78t110 -221q0 -145 -81 -251t-243 -150q113 -27 178.5 -106t65.5 -175q0 -141 -79 -254.5t-213 -176t-296 -62.5q-61 0 -123 10.5t-106 25.5t-79 30t-53 26z" />
<glyph unicode="4" horiz-adv-x="1212" d="M0 348l10 144l797 972l207 -30l-148 -922h244l-29 -164h-239l-56 -348h-194l55 348h-647zM219 512h453l108 684z" />
<glyph unicode="5" horiz-adv-x="1118" d="M10 82l80 156q21 -9 56.5 -23t125.5 -37.5t158 -23.5q140 0 240 89t100 218q0 246 -371 246h-202l129 727h751l-28 -174h-564l-67 -390h65q246 0 378 -100.5t132 -267.5q0 -145 -79 -265.5t-212 -188.5t-290 -68q-68 0 -134.5 10.5t-113 25.5t-83 30t-53.5 26z" />
<glyph unicode="6" horiz-adv-x="1234" d="M135 432q0 81 13 170t44 189.5t76.5 194t116 179.5t157.5 149.5t206 101.5t256 38q33 0 72.5 -5t63.5 -10l23 -5l-28 -164q-72 10 -156 10q-76 0 -144.5 -17t-120 -46t-96.5 -67t-76.5 -79.5t-57.5 -83t-41.5 -79.5t-26.5 -67t-15 -46l-4 -17q6 4 18 11t49.5 25t77 31.5 t98 24.5t114.5 11q157 0 263.5 -91.5t106.5 -254.5q0 -149 -75 -277t-204.5 -203t-283.5 -75q-117 0 -203 38.5t-133 105t-68.5 143t-21.5 165.5zM342 430q0 -125 66.5 -200.5t181.5 -75.5q145 0 232 98.5t87 245.5q0 209 -241 209q-71 0 -147.5 -23.5t-117.5 -46.5l-41 -23 q-20 -122 -20 -184z" />
<glyph unicode="7" horiz-adv-x="1052" d="M82 1055l61 379h961l-27 -154l-735 -1280h-231l731 1249h-539l-72 -194h-149z" />
<glyph unicode="8" horiz-adv-x="1290" d="M102 299q0 303 340 453q-90 49 -140 110.5t-50 155.5q0 193 146.5 314.5t402.5 121.5q189 0 288 -81t99 -218q0 -145 -86.5 -244.5t-229.5 -150.5q51 -23 87.5 -46.5t71 -58t52 -81.5t17.5 -105q0 -140 -79.5 -253t-212 -174.5t-290.5 -61.5q-108 0 -190 26t-130 71 t-72 101t-24 121zM328 348q0 -92 61 -142t174 -50q144 0 227.5 79.5t83.5 198.5q0 27 -8.5 51.5t-20 43t-34.5 37.5t-41.5 31.5t-52 29t-54 25.5t-59.5 26q-60 -28 -104 -56t-86 -67.5t-64 -92t-22 -114.5zM465 1047q0 -32 8.5 -58.5t29 -48.5t39 -37.5t53.5 -32.5t56.5 -26 t63.5 -25q103 37 180.5 115t77.5 178q0 78 -57.5 123t-163.5 45q-118 0 -202.5 -61.5t-84.5 -171.5z" />
<glyph unicode="9" horiz-adv-x="1273" d="M102 0l27 164q74 -10 158 -10q79 0 149.5 17.5t123 47t97.5 68t76 81t56 85t39.5 81t24.5 68t13 46.5l4 18q-6 -4 -18 -11t-49.5 -25t-76.5 -31.5t-97.5 -24.5t-114.5 -11q-164 0 -268.5 90t-104.5 254q0 110 44 210.5t119 174.5t180 118t221 44q66 0 125.5 -14 t115 -47.5t96 -84.5t64.5 -131t24 -180q0 -91 -14.5 -185.5t-46.5 -195t-80 -192t-119 -173t-158.5 -141.5t-204 -95t-249.5 -35q-36 0 -75 5t-60 10zM356 934q0 -197 244 -197q71 0 147.5 23t116.5 46l41 23q19 100 19 168q0 143 -68.5 213t-179.5 70q-144 0 -232 -98 t-88 -248z" />
<glyph unicode=":" horiz-adv-x="589" d="M82 92q0 72 42 123t116 51q112 0 112 -112q0 -71 -41 -122.5t-118 -51.5q-111 0 -111 112zM186 758q0 72 42 123t116 51q54 0 83.5 -28.5t29.5 -84.5q0 -71 -41.5 -122.5t-118.5 -51.5q-111 0 -111 113z" />
<glyph unicode=";" horiz-adv-x="608" d="M-20 -238l77 -77q12 11 32.5 30.5t72.5 77.5t91.5 112.5t72 124t32.5 124.5q0 112 -110 112q-67 0 -110.5 -49t-43.5 -113q0 -27 14.5 -63t14.5 -55q0 -26 -35.5 -82t-71.5 -99zM195 758q0 72 41.5 123t115.5 51q54 0 83.5 -28.5t29.5 -84.5q0 -71 -41.5 -122.5 t-118.5 -51.5q-110 0 -110 113z" />
<glyph unicode="&#x3c;" horiz-adv-x="1253" d="M102 471l25 143l1100 471l-29 -178l-860 -368l735 -379l-29 -170z" />
<glyph unicode="=" horiz-adv-x="1228" d="M76 276l26 164h983l-26 -164h-983zM141 676l27 164h983l-27 -164h-983z" />
<glyph unicode="&#x3e;" horiz-adv-x="1247" d="M20 -10l29 178l860 369l-735 378l29 170l942 -481l-25 -143z" />
<glyph unicode="?" horiz-adv-x="937" d="M174 92q0 71 41.5 122.5t118.5 51.5q110 0 110 -112q0 -72 -41.5 -123t-115.5 -51q-54 0 -83.5 28t-29.5 84zM262 471v131q0 56 25 108t64.5 92.5t88 79t96.5 76.5t87.5 76.5t64.5 87t25 101.5q0 70 -52 101.5t-137 31.5q-45 0 -99 -6t-85 -12l-31 -7l-10 148 q148 47 281 47q73 0 132.5 -13t109.5 -42.5t78 -83t28 -127.5q0 -71 -27 -136t-70 -115.5t-95 -97.5t-104 -88.5t-95 -80.5t-70 -82t-27 -85v-92z" />
<glyph unicode="@" horiz-adv-x="1679" d="M123 526q0 152 34 290t103.5 254.5t168 202t233.5 133.5t294 48q288 0 444 -148.5t156 -414.5q0 -106 -24.5 -204.5t-71.5 -180t-124 -131t-173 -49.5q-43 0 -75.5 15t-50 36t-28 50.5t-13.5 52.5t-3 48l2 39q-4 -10 -11 -26t-33.5 -57.5t-57.5 -73.5t-82.5 -58 t-108.5 -26q-96 0 -151 71t-55 176q0 129 35.5 234t95 171t134 101t154.5 35q44 0 85.5 -12t61.5 -24l19 -11l37 31h88l-73 -465q-9 -74 -9 -80q0 -51 17.5 -72.5t52.5 -21.5q51 0 91 39.5t62.5 101.5t34 128t11.5 128q0 210 -121 327t-350 117q-144 0 -263.5 -59t-198 -160 t-122 -235t-43.5 -285q0 -209 108.5 -318.5t311.5 -109.5q58 0 120.5 12.5t96.5 25.5l33 13l61 -123q-16 -9 -45.5 -22.5t-120 -36t-180.5 -22.5q-269 0 -413 141.5t-144 404.5zM655 614q0 -71 21 -111t61 -40q46 0 91 37.5t76 90.5t55.5 106t36.5 91l12 37l30 142 q-51 22 -125 22q-46 0 -91 -24.5t-82.5 -70t-61 -119t-23.5 -161.5z" />
<glyph unicode="A" d="M-74 0l19 123l174 41l655 1259l203 11l246 -1276l139 -35l-21 -123h-542l18 123l176 41l-41 225h-522l-113 -227l172 -39l-20 -123h-543zM510 553h414l-105 616z" />
<glyph unicode="B" horiz-adv-x="1288" d="M-4 0l20 123l183 41l174 1106l-166 41l18 112l379 11h213q172 0 286 -80.5t114 -233.5q0 -83 -29 -151t-78 -112.5t-102 -72.5t-111 -41q270 -61 270 -276q0 -112 -42.5 -201.5t-117 -147t-175 -88t-218.5 -30.5h-618zM403 164h191q167 0 260.5 81.5t93.5 200.5 q0 121 -76.5 170.5t-236.5 49.5h-154zM506 819h149q55 0 110 13t110 42.5t89.5 87.5t34.5 138q0 81 -55.5 125.5t-146.5 44.5h-219z" />
<glyph unicode="C" horiz-adv-x="1306" d="M123 500q0 -239 136 -379.5t372 -140.5q96 0 191.5 24.5t172 64.5t121.5 69.5t84 60.5l-74 120q-32 -24 -72.5 -46.5t-100 -49t-133.5 -43t-148 -16.5q-146 0 -235 103t-89 272q0 142 38.5 275.5t106.5 237t170.5 166t221.5 62.5q147 0 274 -51l25 -225h119l55 348 q-8 4 -23.5 11t-63.5 24.5t-96.5 31t-117 24.5t-131.5 11q-171 0 -319.5 -70.5t-255 -195.5t-167.5 -303t-61 -385z" />
<glyph unicode="D" horiz-adv-x="1441" d="M6 0l21 123l176 39l178 1108l-166 41l18 112l379 11h265q229 0 368 -129.5t139 -352.5q0 -227 -59 -407t-167.5 -299.5t-263 -182.5t-345.5 -63h-543zM412 164h168q186 0 320 97t201.5 267.5t67.5 397.5q0 164 -82 254t-241 90h-258z" />
<glyph unicode="E" horiz-adv-x="1236" d="M16 0l21 123l180 41l176 1106l-168 41l19 112l381 11h616l-55 -349h-115l-20 185h-453l-72 -441h467l-24 -163h-467l-80 -502h465l76 209h135l-64 -373h-1018z" />
<glyph unicode="F" horiz-adv-x="1120" d="M6 0l21 123l180 41l178 1106l-170 41l18 112l381 11h617l-55 -349h-115l-21 185h-452l-76 -461h469l-25 -164h-467l-77 -481l200 -41l-20 -123h-586z" />
<glyph unicode="G" horiz-adv-x="1486" d="M123 500q0 -236 144 -378t395 -142q285 0 550 122l72 451l158 31l20 123l-532 -11l-19 -112l174 -31l-55 -342q-145 -55 -317 -55q-182 0 -273.5 101.5t-91.5 281.5q0 142 39.5 275.5t108.5 237t172.5 166t222.5 62.5q152 0 268 -45l25 -213h119l55 330q-8 4 -23.5 11 t-63.5 24.5t-96.5 31t-117 24.5t-131.5 11q-171 0 -319.5 -70.5t-255 -195t-167.5 -302.5t-61 -386z" />
<glyph unicode="H" horiz-adv-x="1587" d="M-4 0l20 123l177 39l178 1108l-168 41l18 112l563 11l-20 -123l-189 -41l-73 -451h667l72 451l-186 41l18 112l572 11l-21 -123l-178 -41l-178 -1106l172 -41l-21 -123h-569l20 123l193 39l80 493h-668l-78 -491l178 -41l-20 -123h-559z" />
<glyph unicode="I" horiz-adv-x="743" d="M6 0l21 123l184 41l176 1106l-172 41l18 112l560 11l-21 -123l-180 -41l-178 -1106l172 -41l-21 -123h-559z" />
<glyph unicode="J" horiz-adv-x="710" d="M-174 -297l43 154h100q181 0 213 194l195 1219l-174 41l18 112l559 11l-20 -123l-178 -41l-189 -1178q-29 -186 -145 -292.5t-295 -106.5q-22 0 -53.5 2.5t-52.5 4.5z" />
<glyph unicode="K" horiz-adv-x="1329" d="M6 0l21 123l180 41l178 1106l-172 41l18 112l562 11l-21 -123l-182 -41l-74 -451h189l442 604l303 11l-20 -123l-175 -41l-387 -518l322 -588l145 -41l-20 -123h-533l21 123l162 39l-267 493h-209l-77 -491l174 -41l-21 -123h-559z" />
<glyph unicode="L" horiz-adv-x="1067" d="M-14 0l20 123l182 41l177 1106l-170 41l16 112l571 11l-20 -123l-193 -41l-176 -1106h422l80 235h139l-67 -399h-981z" />
<glyph unicode="M" horiz-adv-x="1781" d="M-4 0h551l20 123l-180 41l158 983l231 -789l168 11l479 770l-155 -975l-172 -41l-21 -123h539l20 123l-164 41l175 1106l174 41l20 123l-428 -11l-500 -811l-243 822l-445 -11l-18 -112l170 -41l-178 -1106l-181 -41z" />
<glyph unicode="N" horiz-adv-x="1597" d="M-4 0h532l23 123l-168 41l158 989l499 -1153h232l201 1270l174 41l20 123l-522 -11l-19 -112l164 -41l-155 -981l-480 1145l-430 -11l-18 -112l170 -41l-176 -1106l-183 -41z" />
<glyph unicode="O" horiz-adv-x="1505" d="M119 479q0 -232 132 -365.5t361 -133.5q175 0 327 68.5t263 192.5t174.5 307.5t63.5 403.5q0 226 -137 364t-381 138q-170 0 -318 -71.5t-255 -198.5t-168.5 -309.5t-61.5 -395.5zM344 500q0 210 66 387t191.5 285t285.5 108q153 0 240 -86.5t87 -267.5q0 -217 -70 -393 t-198 -277.5t-289 -101.5q-147 0 -230 88.5t-83 257.5z" />
<glyph unicode="P" horiz-adv-x="1169" d="M-4 0l20 123l179 41l176 1106l-166 41l18 112l379 11h215q75 0 141.5 -16t127.5 -51.5t97 -102t36 -158.5q0 -130 -38.5 -232.5t-100 -165t-145.5 -103.5t-167.5 -57t-173.5 -16h-135l-60 -370l176 -39l-20 -123h-559zM483 696h138q106 0 183.5 30.5t119.5 84t61 116 t19 136.5q0 61 -23 104.5t-60 64t-71.5 29.5t-69.5 9h-205z" />
<glyph unicode="Q" horiz-adv-x="1517" d="M119 479q0 -218 117 -350t321 -147l361 -246q160 -109 245 -109q49 0 131.5 29t140.5 58l58 30l-59 123q-133 -72 -203 -72q-92 0 -193 78l-184 141q265 84 425.5 336.5t160.5 622.5q0 216 -137 348.5t-381 132.5q-170 0 -318 -71.5t-255 -198.5t-168.5 -309.5 t-61.5 -395.5zM344 500q0 210 66 387t191.5 285t285.5 108q327 0 327 -334q0 -227 -70.5 -407.5t-197.5 -282.5t-289 -102q-147 0 -230 88.5t-83 257.5z" />
<glyph unicode="R" horiz-adv-x="1290" d="M-4 0l20 123l181 41l176 1106l-166 41l16 112l381 11h221q107 0 195 -32t146.5 -104.5t58.5 -175.5q0 -176 -98.5 -294.5t-260.5 -168.5q28 -23 61.5 -86.5t59.5 -142.5l90 -266l148 -41l-21 -123h-295l-114 379q-44 149 -98.5 197.5t-161.5 48.5h-60l-72 -461l177 -41 l-21 -123h-563zM500 778h151q159 0 259 80.5t100 226.5q0 94 -59 139.5t-163 45.5h-210z" />
<glyph unicode="S" horiz-adv-x="1183" d="M68 61q20 -9 55.5 -22.5t136.5 -36t191 -22.5q110 0 211 32.5t182.5 94t130.5 160.5t49 222q0 78 -32 138.5t-83 98t-112.5 67t-123 55t-112.5 53t-83 69t-32 95.5q0 91 77 153t204 62q43 0 93 -9t79 -19l29 -9l28 -219h115l66 348q-23 9 -61 22.5t-138 36.5t-178 23 q-102 0 -194.5 -27.5t-169.5 -81.5t-123 -145t-46 -207q0 -84 32 -148t83 -102.5t112.5 -69t123 -55.5t112.5 -52t83 -68.5t32 -96.5q0 -77 -51 -135t-123.5 -85t-149.5 -27q-54 0 -107.5 11t-80.5 21l-27 11l-6 223h-135z" />
<glyph unicode="T" horiz-adv-x="1124" d="M92 1065l62 369h1101l-59 -369h-131l-21 205h-264l-176 -1106l197 -41l-21 -123h-612l20 123l211 41l176 1106h-266l-84 -205h-133z" />
<glyph unicode="U" horiz-adv-x="1566" d="M193 1311l18 112l561 11l-20 -123l-179 -41l-114 -717q-13 -80 -13 -141q0 -124 62.5 -191t218.5 -67q183 0 272.5 98.5t126.5 331.5l111 686l-184 41l18 112l565 11l-20 -123l-172 -41l-107 -666q-18 -118 -49.5 -211t-83 -172t-122.5 -131t-170.5 -81t-223.5 -29 t-213 29.5t-140 85t-74 128t-23 166.5q0 64 14 164l115 717z" />
<glyph unicode="V" horiz-adv-x="1376" d="M90 1311l19 112l362 11l197 -1137l444 973l-164 41l21 112l549 11l-21 -123l-168 -41l-622 -1270h-195l-248 1270z" />
<glyph unicode="W" horiz-adv-x="1980" d="M90 1311l19 112l362 11v-2l2 2l154 -1055l454 1044l129 11l164 -1069l385 905l-176 41l21 112l548 11l-20 -123l-158 -39l-588 -1272h-129l-178 993l-86 -209l-372 -784h-134l-225 1270z" />
<glyph unicode="X" horiz-adv-x="1282" d="M-113 0h543l21 123l-129 37l315 403l192 -413l-131 -27l-20 -123h547l20 123l-178 41l-283 577l422 525l219 45l21 123l-543 -11l-20 -112l108 -29l-305 -387l-178 383l129 33l20 123l-546 -11l-21 -112l172 -39l273 -553l-437 -557l-190 -39z" />
<glyph unicode="Y" horiz-adv-x="1241" d="M100 1311l19 112l317 11l205 -750l344 588l-184 39l20 112l551 11l-20 -123l-164 -41l-506 -797l-49 -309l170 -41l-21 -123h-559l21 123l184 41l57 373l-213 733z" />
<glyph unicode="Z" horiz-adv-x="1202" d="M59 0l11 143l852 1125h-541l-82 -183h-115l49 349h961l-10 -136l-858 -1134h548l74 209h135l-59 -373h-965z" />
<glyph unicode="[" horiz-adv-x="706" d="M45 -471l326 2048l430 -10l-21 -133l-245 -23l-273 -1716l242 -23l-21 -133z" />
<glyph unicode="\" horiz-adv-x="1036" d="M182 1434h183l438 -1434h-182z" />
<glyph unicode="]" horiz-adv-x="706" d="M-74 -461l19 133l248 23l272 1716l-242 23l23 133l436 10l-326 -2048z" />
<glyph unicode="^" horiz-adv-x="1167" d="M68 655l507 779h140l256 -779h-170l-191 574l-366 -574h-176z" />
<glyph unicode="_" horiz-adv-x="1019" d="M-135 -164h1024v-143h-1024v143z" />
<glyph unicode="`" horiz-adv-x="509" d="M0 1491l88 154l422 -302l-64 -108z" />
<glyph unicode="a" horiz-adv-x="1214" d="M63 338q0 146 34 272t92.5 216t136.5 154t166.5 95t181.5 31q59 0 116.5 -15.5t85.5 -30.5l27 -16l62 41h112l-147 -921l178 -31l-18 -113l-381 -20l82 377q-7 -14 -15.5 -30.5t-34 -58.5t-52 -78.5t-68 -80.5t-83.5 -75t-96.5 -52.5t-109.5 -21.5q-116 0 -192.5 102 t-76.5 256zM268 369q0 -104 34.5 -159.5t90.5 -55.5q50 0 100.5 30.5t91 79.5t78 107.5t65 117.5t48 108t30.5 79l11 31l41 215q-78 30 -184 30q-60 0 -117 -21t-110 -67t-92.5 -112.5t-63 -165t-23.5 -217.5z" />
<glyph unicode="b" horiz-adv-x="1191" d="M104 41l220 1372l-170 41l18 113l375 10l-80 -492l-82 -376q6 16 22.5 51t58 98t90.5 115.5t124 92.5t154 40q131 0 202.5 -106.5t71.5 -262.5q0 -170 -52.5 -314.5t-141 -240t-202.5 -149t-237 -53.5q-88 0 -180.5 15t-141.5 31zM324 164q80 -31 172 -31 q54 0 109.5 21.5t109 68t95.5 112t67.5 162.5t25.5 210q0 96 -35 160.5t-106 64.5q-51 0 -100.5 -30.5t-87.5 -79.5t-72 -107.5t-58 -117.5t-42 -108t-26 -79l-9 -31z" />
<glyph unicode="c" horiz-adv-x="931" d="M68 358q0 -179 99.5 -278.5t258.5 -99.5q57 0 120.5 16t113 38t90.5 44.5t64 38.5l22 16l-62 103q-18 -10 -49.5 -25.5t-112.5 -41.5t-145 -26q-94 0 -144.5 56.5t-50.5 169.5q0 151 42.5 280t128.5 211t198 82q37 0 70.5 -5t48.5 -10l14 -5l6 -174h133l45 276 q-5 3 -14 8.5t-39 20t-61.5 25t-78.5 19.5t-93 9q-173 0 -310 -92t-215.5 -263t-78.5 -393z" />
<glyph unicode="d" horiz-adv-x="1189" d="M74 338q0 145 33.5 270t91 215t134.5 155t165.5 96.5t181.5 31.5q110 0 197 -45l57 352l-174 41l18 113l379 10l-229 -1413l176 -31l-19 -113l-374 -20l90 377q-7 -17 -25 -52t-62 -98t-94.5 -115.5t-125 -92t-150.5 -39.5q-119 0 -194.5 101t-75.5 257zM279 379 q0 -109 34 -167t93 -58q50 0 100 30.5t90 79.5t76.5 107.5t63 117.5t46 108t29.5 79l10 31l33 215q-72 30 -174 30q-176 0 -288.5 -162t-112.5 -411z" />
<glyph unicode="e" horiz-adv-x="1015" d="M61 348q0 156 47 297t126.5 241.5t189 160t229.5 59.5q155 0 246.5 -72t91.5 -194q0 -117 -91 -207t-254.5 -139.5t-373.5 -49.5q-6 -47 -6 -88q0 -109 55.5 -161t170.5 -52q67 0 150.5 23.5t133.5 46.5l51 23l62 -105q-9 -6 -25 -16.5t-66.5 -36.5t-102 -45.5 t-124.5 -36t-141 -16.5q-169 0 -269 99.5t-100 268.5zM291 588q219 0 362.5 65t143.5 166q0 133 -154 133q-113 0 -213 -102t-139 -262z" />
<glyph unicode="f" horiz-adv-x="720" d="M-242 -465l35 131h146q167 0 208 252l158 1004h-192l20 133l197 20l20 123q63 399 408 399q64 0 135.5 -10.5t110.5 -20.5l40 -10l-53 -286h-133v164h-100q-100 0 -145 -50t-60 -145l-27 -164h289l-27 -153h-286l-154 -963q-72 -451 -420 -451q-32 0 -74.5 7t-69.5 13z " />
<glyph unicode="g" horiz-adv-x="1142" d="M43 -418l49 148q20 -7 53 -17.5t115 -28.5t139 -18q135 0 208.5 70.5t101.5 202.5l92 438q-7 -14 -15.5 -30.5t-34 -58.5t-52.5 -78.5t-68.5 -80.5t-84 -75t-97.5 -52.5t-111 -21.5q-114 0 -189 101t-75 257q0 146 33.5 272t92 216t135.5 154t165 95t180 31 q62 0 119.5 -15.5t84.5 -30.5l27 -16l62 41h112l-182 -1134q-35 -219 -159.5 -336t-323.5 -117q-79 0 -173.5 21t-148.5 42zM279 373q0 -108 34 -163.5t90 -55.5q69 0 138 57t118 138t88 162.5t59 138.5l19 57l39 215q-73 30 -184 30q-60 0 -116.5 -21t-108.5 -67 t-91 -112.5t-62 -164t-23 -214.5z" />
<glyph unicode="h" horiz-adv-x="1282" d="M121 0l225 1413l-172 41l19 113l374 10l-157 -889q3 9 12.5 30.5t32.5 62t50.5 82t69.5 86t87.5 79t106 56.5t124.5 22q223 0 223 -248q0 -49 -10 -121l-92 -573l172 -31l-19 -113l-374 -20l116 707q9 70 9 90q0 135 -107 135q-54 0 -107 -31t-94.5 -80.5t-78.5 -109.5 t-63.5 -120.5t-46 -110t-29.5 -80.5l-9 -31l-68 -369h-194z" />
<glyph unicode="i" horiz-adv-x="634" d="M106 963l175 -41l-148 -922l377 20l18 113l-174 31l148 921l-375 -10zM307 1382q0 -48 31 -75t82 -27q68 0 105.5 53.5t37.5 130.5q0 49 -30.5 76t-81.5 27q-68 0 -106 -54t-38 -131z" />
<glyph unicode="j" horiz-adv-x="604" d="M-283 -461q82 -31 164 -31q176 0 282 105.5t138 294.5l193 1177l-379 -10l-21 -112l176 -41l-159 -994q-24 -144 -73.5 -205t-156.5 -61q-32 0 -63 2.5t-46 5.5l-14 2zM297 1382q0 -48 31 -75t82 -27q68 0 105.5 53.5t37.5 130.5q0 48 -31 75.5t-82 27.5 q-68 0 -105.5 -54t-37.5 -131z" />
<glyph unicode="k" horiz-adv-x="1105" d="M111 0l227 1413l-174 41l18 113l375 10l-145 -903h172l198 264l-86 25l17 112l438 10l-21 -122l-149 -27l-264 -320l190 -452l162 -51l-20 -113h-279l-207 522h-176l-82 -522h-194z" />
<glyph unicode="l" horiz-adv-x="595" d="M111 0l381 20l18 113l-174 31l225 1413l-379 -10l-18 -113l172 -41z" />
<glyph unicode="m" horiz-adv-x="1929" d="M106 963l19 112l373 10l-88 -397q4 10 12.5 30.5t30.5 62t48.5 82t67.5 86t85.5 79t104.5 56t124 22.5q117 0 168 -64t51 -186q0 -52 -10 -127q19 46 41.5 88t64 97.5t87.5 95.5t112.5 68t140.5 28q225 0 225 -252q0 -49 -10 -117l-94 -573l174 -31l-18 -113l-377 -20 l116 707q9 70 9 88q0 137 -107 137q-53 0 -105.5 -32t-93 -83t-77.5 -112.5t-63 -123t-45 -112.5t-28 -83l-10 -32l-55 -354h-195l115 707q8 62 8 90q0 135 -106 135q-53 0 -104 -31t-91.5 -80.5t-76.5 -109.5t-61.5 -120.5t-44.5 -110t-29 -80.5l-9 -31l-59 -369h-195 l148 922z" />
<glyph unicode="n" horiz-adv-x="1298" d="M106 963l19 112l375 10l-92 -397q6 13 14.5 31t34 61.5t53.5 82.5t72 85t90.5 79.5t107.5 56t125 22.5q228 0 228 -252q0 -42 -11 -117l-94 -573l174 -31l-18 -113l-377 -20l115 707q8 62 8 90q0 135 -107 135q-54 0 -107.5 -31t-96 -80.5t-80.5 -109.5t-65.5 -120.5 t-48 -110t-30.5 -80.5l-10 -31l-59 -369h-195l148 922z" />
<glyph unicode="o" horiz-adv-x="1126" d="M70 385q0 -185 101 -295t275 -110q131 0 243.5 50.5t194 142.5t127.5 228.5t46 300.5q0 181 -100.5 292.5t-284.5 111.5q-266 0 -434 -200t-168 -521zM274 379q0 153 39 278t123 205t199 80q100 0 159.5 -56t59.5 -179q0 -165 -42.5 -291.5t-127.5 -199.5t-201 -73 q-97 0 -153 58.5t-56 177.5z" />
<glyph unicode="p" horiz-adv-x="1208" d="M-125 -471l19 113l174 51l196 1229l-168 41l19 112l370 10l-82 -376q6 17 22 51t58 97.5t92 116t127.5 92.5t161.5 40q87 0 149.5 -52.5t92 -134.5t29.5 -182q0 -170 -51 -314.5t-137 -240t-197.5 -149t-233.5 -53.5q-113 0 -201 49l-53 -336l156 -51l-21 -113h-522z M338 164q86 -31 188 -31q67 0 135.5 35.5t129.5 103t100 181.5t39 254q0 95 -34 160t-103 65q-52 0 -103 -30.5t-91 -79.5t-76 -107.5t-62 -117.5t-44.5 -108t-28.5 -79l-9 -31z" />
<glyph unicode="q" horiz-adv-x="1142" d="M74 338q0 147 34 273t93 215.5t136.5 153.5t166 95t180.5 31q64 0 122.5 -15.5t85.5 -30.5l26 -16l63 41h106l-223 -1392l156 -51l-19 -113h-530l18 113l181 51l47 307l90 379q-4 -8 -11.5 -22.5t-32.5 -56t-52.5 -79t-70 -83.5t-86 -79.5t-99 -56t-111.5 -22.5 q-116 0 -193 101.5t-77 256.5zM279 369q0 -104 35 -159.5t92 -55.5q50 0 100.5 30.5t91.5 79.5t78.5 107.5t65 117.5t48 108t30.5 79l11 31l41 215q-86 30 -188 30q-76 0 -146 -34.5t-129 -102.5t-94.5 -183.5t-35.5 -262.5z" />
<glyph unicode="r" horiz-adv-x="872" d="M106 963l19 112l377 10l-80 -356q5 13 12 30t27.5 56t43.5 74t60.5 76.5t77.5 71t95 49.5t114 20q23 0 48.5 -5t39.5 -11l14 -5l-61 -307h-133v144q-44 0 -88 -29.5t-79.5 -76.5t-68 -103.5t-56 -113.5t-41.5 -104t-27 -77l-9 -29l-65 -389h-195l150 922z" />
<glyph unicode="s" horiz-adv-x="942" d="M43 31q16 -6 44.5 -14.5t109 -22.5t153.5 -14q209 0 335 94t126 254q0 58 -25.5 105.5t-66 79.5t-90 59.5t-98.5 52t-89.5 49.5t-66 59.5t-25.5 75.5q0 74 53 110.5t142 36.5q39 0 72.5 -4.5t46.5 -9.5l14 -4l12 -160h133l49 277q-153 51 -303 51q-86 0 -159.5 -20 t-131 -59t-90 -103t-32.5 -146q0 -62 25 -112.5t64.5 -83.5t87.5 -60.5t96 -50.5t87.5 -46.5t64.5 -56t25 -71.5q0 -82 -61 -125t-164 -43q-26 0 -51 2.5t-43 6.5t-32 7.5t-22 6.5l-8 2v174h-133z" />
<glyph unicode="t" horiz-adv-x="749" d="M90 922l23 133l204 20l41 258l203 41l-49 -299h283l-25 -153h-283l-88 -547q-12 -79 -12 -129q0 -55 18.5 -79t61.5 -24q25 0 66.5 10.5t70.5 20.5l29 10l33 -110q-17 -11 -46 -26.5t-100.5 -41.5t-122.5 -26q-207 0 -207 243q0 55 13 131l90 568h-203z" />
<glyph unicode="u" horiz-adv-x="1302" d="M96 963l19 112l374 10q-78 -471 -99 -612.5t-21 -183.5q0 -135 106 -135q56 0 110 31t96 80.5t79.5 109.5t64.5 120.5t47 110t30 80.5l9 31l62 368h194l-147 -921l176 -31l-18 -113l-377 -20l84 397q-4 -11 -14 -31.5t-34 -62t-52.5 -81.5t-71.5 -85t-89 -79t-107 -56 t-124 -22q-227 0 -227 249q0 61 17.5 177t86.5 516z" />
<glyph unicode="v" horiz-adv-x="1075" d="M14 963l19 112l311 10l135 -737l21 -153l338 731l-164 37l18 112l459 10l-21 -122l-102 -33l-457 -930h-221l-192 924z" />
<glyph unicode="w" horiz-adv-x="1589" d="M25 963l18 112l322 10l102 -890l334 880l145 10l105 -890l301 729l-174 39l18 112l469 10l-20 -122l-101 -25l-411 -938h-236l-94 696l-27 -102l-229 -594h-232l-147 932z" />
<glyph unicode="x" horiz-adv-x="1116" d="M-51 0h289l297 406l190 -406l315 20l19 113l-178 31l-197 403l287 353l176 43l20 122l-290 -10l-291 -379l-174 389l-322 -10l-18 -112l174 -41l192 -385l-284 -367l-187 -57z" />
<glyph unicode="y" horiz-adv-x="1079" d="M-53 -459l41 131q81 -10 153 -10q103 0 160 55t121 203l-266 1004l-142 39l23 112l309 10l172 -751l19 -139l303 731l-154 37l19 112l450 10l-20 -122l-115 -33l-365 -862q-48 -113 -81 -185t-71 -141.5t-70.5 -108.5t-72.5 -70t-83.5 -43t-98.5 -12q-52 0 -109.5 8 t-89.5 16z" />
<glyph unicode="z" horiz-adv-x="946" d="M10 0l10 143l656 789h-357l-65 -154h-133l47 307h764l-10 -133l-654 -792h385l66 168h123l-43 -328h-789z" />
<glyph unicode="{" horiz-adv-x="757" d="M68 532l24 144q105 0 152.5 55t64.5 158l58 350q31 191 124.5 269.5t286.5 78.5h74l-18 -133q-145 0 -202 -45t-79 -170l-59 -350q-36 -217 -226 -285q140 -57 140 -215q0 -26 -7 -70l-69 -432q-6 -41 -6 -69q0 -81 50 -113.5t171 -32.5l-23 -133h-75q-163 0 -237.5 55.5 t-74.5 184.5q0 40 10 108l70 432q6 37 6 72q0 69 -34.5 105t-120.5 36z" />
<glyph unicode="|" horiz-adv-x="542" d="M31 -471l321 2017h160l-322 -2017h-159z" />
<glyph unicode="}" horiz-adv-x="768" d="M-78 -461l23 133q141 0 202 46t80 169l68 432q31 215 229 285q-147 58 -147 219q0 31 6 66l59 350q7 44 7 68q0 83 -49.5 115t-172.5 32l23 133h86q155 0 228 -55.5t73 -183.5q0 -41 -10 -109l-60 -350q-6 -37 -6 -68q0 -69 37.5 -107t126.5 -38l-23 -144 q-107 0 -157.5 -55.5t-65.5 -157.5l-67 -432q-30 -189 -125.5 -268.5t-280.5 -79.5h-84z" />
<glyph unicode="~" horiz-adv-x="1282" d="M123 500q5 8 14.5 22t42.5 50t69.5 63t93.5 49.5t116 22.5q51 0 97.5 -15t81.5 -36t69 -42t75.5 -36t85.5 -15q49 0 100.5 30.5t77.5 60.5l27 30l84 -72q-6 -9 -16.5 -23t-44.5 -51t-70 -65t-88.5 -51t-103.5 -23q-62 0 -123 22.5t-102.5 49.5t-97.5 49.5t-108 22.5 q-31 0 -63 -12t-55 -28.5t-42 -33.5t-29 -29l-9 -12z" />
<glyph unicode="&#xa1;" horiz-adv-x="624" d="M41 -430l197 1024l170 10l-136 -1034h-231zM242 952q0 72 41.5 123t115.5 51q54 0 83.5 -28t29.5 -84q0 -71 -41.5 -122.5t-118.5 -51.5q-110 0 -110 112z" />
<glyph unicode="&#xa2;" horiz-adv-x="978" d="M102 594q0 -136 84.5 -237t214.5 -124l-36 -233h149l37 233q78 14 163 51t131 67l46 30l-62 102q-5 -3 -26.5 -16t-32 -18t-33 -16.5t-41.5 -17t-45 -12t-56 -9.5t-63 -3q-98 0 -161.5 67t-63.5 171q0 199 99.5 328.5t269.5 129.5q37 0 70.5 -5t47.5 -10l15 -5v-174h133 l51 276q-13 9 -36.5 22t-95.5 35.5t-142 24.5l31 181l-152 -11l-31 -184q-212 -41 -338.5 -207.5t-126.5 -435.5z" />
<glyph unicode="&#xa3;" horiz-adv-x="1232" d="M8 0l19 123l116 31q69 18 100.5 74.5t53.5 191.5q8 46 29 266h-209l20 129l203 23q9 102 25 206q31 192 146.5 301t319.5 109q108 0 208.5 -15t146.5 -31l47 -15l-55 -351h-115l-27 236q-111 12 -221 12q-108 0 -168 -54t-76 -151l-30 -247h333l-24 -152h-322 q-18 -181 -28 -246q-9 -57 -26 -106.5t-35 -79.5t-34.5 -51.5t-26.5 -30.5l-11 -8h505l76 209h135l-61 -373h-1014z" />
<glyph unicode="&#xa4;" horiz-adv-x="1185" d="M53 225l176 158q-20 50 -20 121q0 183 104 319l-139 172l117 107l139 -170q115 72 248 72q118 0 196 -56l179 154l80 -107l-170 -151q24 -56 24 -127q0 -190 -108 -330l133 -162l-117 -106l-133 160q-106 -64 -234 -64q-132 0 -215 59l-180 -155zM387 530q0 -84 48 -129 t130 -45q107 0 175.5 89t68.5 233q0 89 -42 136.5t-122 47.5q-115 0 -186.5 -90t-71.5 -242z" />
<glyph unicode="&#xa5;" horiz-adv-x="1288" d="M100 1311l19 112l338 11l205 -750l344 588l-154 39l20 112l527 11l-21 -123l-170 -41l-340 -533h244l-22 -143h-904l23 143h240l-156 533zM143 317l23 144h903l-22 -144h-369l-25 -153l170 -41l-20 -123h-559l20 123l185 41l24 153h-330z" />
<glyph unicode="&#xa6;" horiz-adv-x="557" d="M31 -543l133 840h160l-134 -840h-159zM236 748l131 819h159l-131 -819h-159z" />
<glyph unicode="&#xa7;" horiz-adv-x="1126" d="M72 -246l61 328h129l8 -215q51 -10 125 -10q86 0 158 59.5t72 153.5q0 46 -26.5 89t-68.5 78t-93 70t-102 73.5t-93 80.5t-68.5 98t-26.5 119q0 65 21 126t54 105t67 74t65 45q-30 72 -30 135q0 128 66.5 228.5t171.5 153t226 52.5q71 0 143 -15.5t108 -30.5l36 -15 l-59 -328h-121l-14 215q-64 11 -115 11q-101 0 -172.5 -60t-71.5 -153q0 -46 26 -88.5t68 -77t93 -69.5t101.5 -72.5t92.5 -78.5t68 -96t26 -116q0 -229 -206 -361q32 -62 32 -133q0 -124 -63 -224.5t-168 -156t-227 -55.5q-73 0 -146 15.5t-110 30.5zM344 729 q0 -52 40.5 -102t92 -84t122.5 -83.5t110 -88.5q92 80 92 188q0 54 -40 104.5t-91 84.5t-121.5 83t-110.5 89q-33 -21 -63.5 -71t-30.5 -120z" />
<glyph unicode="&#xa8;" horiz-adv-x="1054" d="M209 1403q0 64 36.5 108.5t94.5 44.5q44 0 69 -25t25 -69q0 -62 -38.5 -106.5t-94.5 -44.5q-43 0 -67.5 24.5t-24.5 67.5zM621 1403q0 64 36.5 108.5t94.5 44.5q44 0 69 -25t25 -69q0 -62 -38.5 -106.5t-94.5 -44.5q-43 0 -67.5 24.5t-24.5 67.5z" />
<glyph unicode="&#xa9;" horiz-adv-x="1679" d="M92 707q0 159 57 298t155.5 237.5t237.5 155t298 56.5q213 0 383.5 -91.5t267 -257.5t96.5 -378q0 -158 -60 -297.5t-162.5 -238t-244.5 -155t-301 -56.5t-294.5 53.5t-230.5 148.5t-148.5 230.5t-53.5 294.5zM256 717q0 -263 157 -426.5t416 -163.5q261 0 427.5 164.5 t166.5 425.5t-166.5 425.5t-427.5 164.5q-259 0 -416 -163.5t-157 -426.5zM471 702q0 194 102.5 310t280.5 116q57 0 122 -16t102 -32l36 -15l-4 -217h-115l-28 139q-57 17 -127 17q-98 0 -146.5 -75t-48.5 -216q0 -133 54.5 -197.5t150.5 -64.5q49 0 104 22.5t85 44.5 l30 23l55 -95l-14 -14t-38.5 -31t-61 -39t-78 -31t-92.5 -14q-173 0 -271 98.5t-98 286.5z" />
<glyph unicode="&#xaa;" horiz-adv-x="978" d="M92 338l23 143h702l-22 -143h-703zM131 918q0 126 37.5 229t100.5 169t142.5 102t166.5 36q43 0 84 -12t61 -24l20 -11l43 33h101l-113 -652l135 -28l-12 -88l-301 -8l59 270q-7 -15 -18.5 -37.5t-43.5 -70t-67.5 -84.5t-88.5 -66t-107 -29q-90 0 -144.5 80.5 t-54.5 190.5zM295 932q0 -74 25 -112t61 -38q34 0 69 21t63.5 55t55.5 75t47 82.5t35 75.5t23 55l8 21l29 144q-59 20 -133 20q-38 0 -76 -12.5t-76 -42.5t-66.5 -74.5t-46.5 -114t-18 -155.5z" />
<glyph unicode="&#xab;" horiz-adv-x="1105" d="M123 498l18 123l328 297l104 -93l-260 -274l162 -305l-115 -82zM555 498l18 123l338 297l105 -93l-271 -274l173 -305l-115 -82z" />
<glyph unicode="&#xac;" horiz-adv-x="1259" d="M150 563l26 164h1004l-88 -553h-170l61 389h-833z" />
<glyph unicode="&#xad;" horiz-adv-x="782" d="M100 471l29 174h520l-28 -174h-521z" />
<glyph unicode="&#xae;" horiz-adv-x="1474" d="M154 922q0 268 178 446t446 178q178 0 320 -75.5t223.5 -214t81.5 -314.5t-86 -319.5t-234 -224.5t-325 -81q-268 0 -436 168t-168 437zM307 932q0 -218 124 -349.5t337 -131.5q215 0 348 133t133 348t-133 348t-348 133q-213 0 -337 -131.5t-124 -349.5zM481 604v82 l82 21v475l-82 16v76l307 6q104 0 172 -49.5t68 -138.5q0 -133 -127 -181l2 -1q2 -2 5 -4.5t6.5 -6.5t8.5 -9.5t10.5 -13t12 -18t12.5 -22.5l66 -129l82 -21v-82h-176l-82 174q-33 71 -52.5 89t-60.5 18h-39v-178l82 -21v-82h-297zM696 979h72q55 0 89 27t34 75q0 45 -30 71 t-83 26h-82v-199z" />
<glyph unicode="&#xaf;" horiz-adv-x="563" d="M0 1352l23 153h540l-22 -153h-541z" />
<glyph unicode="&#xb0;" horiz-adv-x="839" d="M115 1176q0 134 94 231.5t237 97.5q122 0 199.5 -70t77.5 -202q0 -135 -95 -238.5t-237 -103.5q-119 0 -197.5 74.5t-78.5 210.5zM262 1188q0 -82 38.5 -123t102.5 -41q76 0 124 55t48 140q0 74 -38.5 113.5t-102.5 39.5q-75 0 -123.5 -53t-48.5 -131z" />
<glyph unicode="&#xb1;" horiz-adv-x="1261" d="M31 0l24 160h1014l-25 -160h-1013zM131 618l25 160h419l54 328h176l-53 -328h417l-26 -160h-416l-53 -331h-176l53 331h-420z" />
<glyph unicode="&#xb2;" horiz-adv-x="765" d="M45 573l23 142q53 39 123 90.5t107.5 79t85.5 64.5t72 59t51.5 51t39.5 52t20 50t8 56q0 94 -133 94q-32 0 -63.5 -5.5t-47.5 -10.5l-16 -5l-30 -123h-121l26 224q154 53 279 53q291 0 291 -197q0 -43 -12 -85t-30 -76.5t-49 -71t-59.5 -64t-71 -62t-74 -57t-79.5 -57 t-76 -55.5h393l-24 -146h-633z" />
<glyph unicode="&#xb3;" horiz-adv-x="706" d="M6 641l57 121q12 -7 34 -17.5t84 -27.5t118 -17q85 0 136.5 38t51.5 106q0 104 -163 104h-93l19 125h94q91 0 143 36.5t52 109.5q0 92 -129 92q-38 0 -73 -4.5t-51 -9.5l-16 -5l-24 -98h-117l27 211q165 39 286 39q129 0 198 -48.5t69 -140.5q0 -90 -57 -150.5 t-152 -82.5q67 -6 114.5 -48t47.5 -108q0 -76 -32 -135t-86.5 -95t-123.5 -54.5t-148 -18.5q-63 0 -129.5 19.5t-101.5 39.5z" />
<glyph unicode="&#xb4;" horiz-adv-x="487" d="M127 1327l422 301l88 -153l-447 -256z" />
<glyph unicode="&#xb5;" horiz-adv-x="1298" d="M37 -471h188l82 471q42 -20 84 -20q87 0 169 42t135.5 96.5t100 122t64 102.5t25.5 54l-84 -397l370 10l21 113l-176 41l151 921h-194l-68 -368q-3 -12 -10 -32t-29.5 -78.5t-47 -112t-63.5 -118.5t-80 -111.5t-94.5 -78.5t-107.5 -32q-108 0 -108 137q0 36 131 794 l-379 -10l-21 -112l178 -41z" />
<glyph unicode="&#xb6;" horiz-adv-x="1290" d="M152 -348l18 123l190 41l129 811q-127 19 -205.5 109.5t-78.5 226.5q0 200 137 335.5t342 135.5h256l346 -11l-18 -112l-176 -41l-261 -1618h-176l260 1618h-159l-260 -1618h-344z" />
<glyph unicode="&#xb7;" horiz-adv-x="563" d="M143 590q0 72 45 127t119 55q54 0 83.5 -28.5t29.5 -84.5q0 -72 -42 -127t-118 -55q-54 0 -85.5 28.5t-31.5 84.5z" />
<glyph unicode="&#xb8;" horiz-adv-x="892" d="M221 -401q8 -5 24.5 -13t71.5 -21.5t117 -13.5q94 0 164 61.5t70 151.5q0 58 -39.5 97t-108.5 51l15 88h-121l-27 -162q72 0 111 -23.5t39 -64.5q0 -44 -35.5 -72t-83.5 -28q-32 0 -66 8t-52 16l-17 9z" />
<glyph unicode="&#xb9;" horiz-adv-x="659" d="M98 573l21 134h176l86 550l-225 -131l-45 113l323 195h139l-114 -727h176l-23 -134h-514z" />
<glyph unicode="&#xba;" horiz-adv-x="1013" d="M66 338l22 143h703l-23 -143h-702zM143 940q0 228 130.5 371t336.5 143q149 0 228.5 -76.5t79.5 -216.5q0 -226 -124.5 -371t-332.5 -145q-154 0 -236 74.5t-82 220.5zM311 969q0 -95 51 -143t136 -48q114 0 183 95.5t69 246.5q0 94 -44 146.5t-126 52.5 q-124 0 -196.5 -93.5t-72.5 -256.5z" />
<glyph unicode="&#xbb;" horiz-adv-x="1107" d="M92 254l270 276l-172 306l115 82l248 -334l-18 -123l-338 -297zM535 254l260 276l-162 306l115 82l237 -334l-18 -123l-328 -297z" />
<glyph unicode="&#xbc;" horiz-adv-x="1986" d="M164 573l20 134h187l86 542l-232 -133l-49 123l334 195h149l-114 -727h184l-22 -134h-543zM342 0l1040 1434h189l-1041 -1434h-188zM1032 186l6 121l498 574l193 -21l-87 -541h146l-23 -133h-145l-29 -186h-172l29 186h-416zM1214 319h259l57 367z" />
<glyph unicode="&#xbd;" horiz-adv-x="1888" d="M102 573l21 134h186l86 542l-231 -133l-49 123l334 195h149l-115 -727h185l-23 -134h-543zM287 0l1040 1434h189l-1041 -1434h-188zM1018 0l22 141q57 43 138.5 102.5t119.5 87.5t90 69t74 64.5t46 56t32 61t8 61.5q0 94 -133 94q-32 0 -63.5 -5t-47.5 -10l-16 -5 l-31 -123h-120l26 223q154 53 279 53q291 0 291 -196q0 -42 -12 -83t-29.5 -74.5t-49.5 -71.5t-59 -64.5t-71.5 -63t-74 -58.5t-80 -58.5t-75.5 -55.5h393l-24 -145h-633z" />
<glyph unicode="&#xbe;" horiz-adv-x="1939" d="M102 641l58 121q12 -7 34 -17.5t83.5 -27.5t117.5 -17q85 0 137 38t52 106q0 104 -164 104h-92l18 125h94q91 0 143 36.5t52 109.5q0 92 -129 92q-38 0 -73 -4.5t-51 -9.5l-15 -5l-25 -98h-117l27 211q166 39 287 39q129 0 197.5 -48.5t68.5 -140.5q0 -90 -57 -150.5 t-152 -82.5q67 -6 114.5 -48t47.5 -108q0 -76 -31.5 -135t-86.5 -95t-123.5 -54.5t-147.5 -18.5q-63 0 -129.5 19.5t-101.5 39.5zM367 0l1040 1434h188l-1040 -1434h-188zM1057 186l6 121l498 574l192 -21l-86 -541h145l-22 -133h-145l-29 -186h-172l29 186h-416zM1239 319 h258l57 367z" />
<glyph unicode="&#xbf;" horiz-adv-x="927" d="M20 -154q0 71 27 136t70 115.5t95 97.5t104 88t95 80t70 82t27 85v93l178 12v-131q0 -55 -25 -106.5t-64.5 -91.5t-87.5 -79t-96 -77t-87.5 -77.5t-64.5 -88t-25 -101.5q0 -70 52 -101.5t136 -31.5q45 0 99 6t85 12l31 7l10 -148q-147 -47 -280 -47q-73 0 -133 13 t-110 42.5t-78 83t-28 127.5zM504 952q0 72 42 123t116 51q112 0 112 -112q0 -71 -41.5 -122.5t-118.5 -51.5q-110 0 -110 112z" />
<glyph unicode="&#xc0;" d="M-74 0l19 123l174 41l655 1259l203 11l246 -1276l139 -35l-21 -123h-542l18 123l176 41l-41 225h-522l-113 -227l172 -39l-20 -123h-543zM510 553h414l-105 616zM639 1716l76 162l446 -250l-55 -112z" />
<glyph unicode="&#xc1;" d="M-74 0l19 123l174 41l655 1259l203 11l246 -1276l139 -35l-21 -123h-542l18 123l176 41l-41 225h-522l-113 -227l172 -39l-20 -123h-543zM510 553h414l-105 616zM766 1636l444 248l76 -162l-467 -194z" />
<glyph unicode="&#xc2;" d="M-74 0l19 123l174 41l655 1259l203 11l246 -1276l139 -35l-21 -123h-542l18 123l176 41l-41 225h-522l-113 -227l172 -39l-20 -123h-543zM510 553h414l-105 616zM567 1628l330 225l121 11l252 -236l-96 -92l-236 170l-305 -170z" />
<glyph unicode="&#xc3;" d="M-74 0l19 123l174 41l655 1259l203 11l246 -1276l139 -35l-21 -123h-542l18 123l176 41l-41 225h-522l-113 -227l172 -39l-20 -123h-543zM510 553h414l-105 616zM553 1630q5 8 13 21t35 46t54.5 58.5t69 46.5t80.5 21q58 0 117.5 -23.5t114.5 -47t104 -23.5q36 0 72 21.5 t53 43.5l18 21l62 -62q-4 -7 -11.5 -19.5t-32.5 -44.5t-52 -56t-67 -44t-79 -20q-58 0 -117 22.5t-114 45t-105 22.5q-36 0 -75 -22.5t-60 -44.5l-21 -23z" />
<glyph unicode="&#xc4;" d="M-74 0l19 123l174 41l655 1259l203 11l246 -1276l139 -35l-21 -123h-542l18 123l176 41l-41 225h-522l-113 -227l172 -39l-20 -123h-543zM510 553h414l-105 616zM616 1659q0 63 37 108t95 45q44 0 69 -25t25 -69q0 -62 -38.5 -106.5t-94.5 -44.5q-43 0 -68 24.5t-25 67.5 zM1028 1659q0 64 36.5 108.5t94.5 44.5q44 0 69 -25t25 -69q0 -62 -38.5 -106.5t-94.5 -44.5q-43 0 -67.5 24.5t-24.5 67.5z" />
<glyph unicode="&#xc5;" d="M-74 0l19 123l174 41l653 1257q-92 52 -92 160t81.5 191t188.5 83q83 0 141 -49.5t58 -136.5q0 -80 -47.5 -149.5t-120.5 -102.5l242 -1259l139 -35l-21 -123h-542l18 123l176 41l-41 225h-522l-113 -227l172 -39l-20 -123h-543zM510 553h414l-105 616zM801 1593 q0 -46 24 -71t70 -25q59 0 96 47.5t37 112.5q0 96 -92 96q-59 0 -97 -48t-38 -112z" />
<glyph unicode="&#xc6;" horiz-adv-x="1916" d="M-76 0l21 123l174 41l731 1106l-162 41l19 112l391 11h823l-55 -349h-115l-20 185h-453l-72 -441h467l-24 -163h-467l-80 -502h465l75 209h136l-64 -373h-1018l21 123l180 41l41 256h-444l-170 -262l153 -35l-20 -123h-533zM598 584h365l110 686h-35z" />
<glyph unicode="&#xc7;" horiz-adv-x="1306" d="M123 500q0 207 61 385t167.5 303t255 195.5t319.5 70.5q100 0 208 -25.5t166 -50.5l58 -26l-55 -348h-119l-25 225q-128 51 -274 51q-119 0 -221.5 -62.5t-170.5 -166t-106.5 -237t-38.5 -275.5q0 -169 89 -272t235 -103q74 0 148 16.5t133.5 43t100 49t72.5 46.5 l74 -120q-242 -189 -493 -215l-13 -72q69 -12 108.5 -51t39.5 -97q0 -90 -70 -151.5t-164 -61.5q-62 0 -115 12t-75 24l-23 12l62 84q63 -33 135 -33q48 0 83.5 28t35.5 72q0 41 -39 64.5t-111 23.5l23 144q-216 13 -338.5 152t-122.5 366z" />
<glyph unicode="&#xc8;" horiz-adv-x="1236" d="M16 0l21 123l180 41l176 1106l-168 41l19 112l381 11h616l-55 -349h-115l-20 185h-453l-72 -441h467l-24 -163h-467l-80 -502h465l76 209h135l-64 -373h-1018zM500 1724l75 162l447 -250l-55 -112z" />
<glyph unicode="&#xc9;" horiz-adv-x="1236" d="M16 0l21 123l180 41l176 1106l-168 41l19 112l381 11h616l-55 -349h-115l-20 185h-453l-72 -441h467l-24 -163h-467l-80 -502h465l76 209h135l-64 -373h-1018zM621 1636l444 248l76 -162l-467 -194z" />
<glyph unicode="&#xca;" horiz-adv-x="1236" d="M16 0l21 123l180 41l176 1106l-168 41l19 112l381 11h616l-55 -349h-115l-20 185h-453l-72 -441h467l-24 -163h-467l-80 -502h465l76 209h135l-64 -373h-1018zM455 1628l329 225l121 11l252 -236l-96 -92l-236 170l-305 -170z" />
<glyph unicode="&#xcb;" horiz-adv-x="1236" d="M16 0l21 123l180 41l176 1106l-168 41l19 112l381 11h616l-55 -349h-115l-20 185h-453l-72 -441h467l-24 -163h-467l-80 -502h465l76 209h135l-64 -373h-1018zM492 1659q0 64 36.5 108.5t94.5 44.5q44 0 69 -25t25 -69q0 -62 -38.5 -106.5t-94.5 -44.5q-43 0 -67.5 24.5 t-24.5 67.5zM903 1659q0 64 36.5 108.5t94.5 44.5q44 0 69 -25t25 -69q0 -62 -38.5 -106.5t-94.5 -44.5q-43 0 -67.5 24.5t-24.5 67.5z" />
<glyph unicode="&#xcc;" horiz-adv-x="743" d="M6 0l21 123l184 41l176 1106l-172 41l18 112l560 11l-21 -123l-180 -41l-178 -1106l172 -41l-21 -123h-559zM231 1724l76 162l447 -250l-56 -112z" />
<glyph unicode="&#xcd;" horiz-adv-x="743" d="M6 0l21 123l184 41l176 1106l-172 41l18 112l560 11l-21 -123l-180 -41l-178 -1106l172 -41l-21 -123h-559zM375 1636l444 248l76 -162l-467 -194z" />
<glyph unicode="&#xce;" horiz-adv-x="743" d="M6 0l21 123l184 41l176 1106l-172 41l18 112l560 11l-21 -123l-180 -41l-178 -1106l172 -41l-21 -123h-559zM213 1628l319 225l121 11l242 -236l-96 -92l-226 170l-294 -170z" />
<glyph unicode="&#xcf;" horiz-adv-x="743" d="M6 0l21 123l184 41l176 1106l-172 41l18 112l560 11l-21 -123l-180 -41l-178 -1106l172 -41l-21 -123h-559zM248 1659q0 64 36.5 108.5t94.5 44.5q44 0 69 -25t25 -69q0 -62 -38.5 -106.5t-94.5 -44.5q-43 0 -67.5 24.5t-24.5 67.5zM659 1659q0 63 37 108t95 45 q44 0 69 -25t25 -69q0 -62 -38.5 -106.5t-94.5 -44.5q-43 0 -68 24.5t-25 67.5z" />
<glyph unicode="&#xd0;" horiz-adv-x="1456" d="M6 0l21 123l176 39l82 504h-172l26 163h170l72 441l-166 41l18 112l379 11h265q229 0 370.5 -129.5t141.5 -352.5q0 -454 -226 -703t-614 -249h-543zM412 164h168q186 0 321.5 97t204 268t68.5 397q0 163 -84.5 253.5t-243.5 90.5h-258l-72 -441h311l-22 -163h-313z" />
<glyph unicode="&#xd1;" horiz-adv-x="1597" d="M-4 0h532l23 123l-168 41l158 989l499 -1153h232l201 1270l174 41l20 123l-522 -11l-19 -112l164 -41l-155 -981l-480 1145l-430 -11l-18 -112l170 -41l-176 -1106l-183 -41zM547 1630q5 8 13 21t35 46t54.5 58.5t69 46.5t80.5 21q58 0 117.5 -23.5t114.5 -47t104 -23.5 q36 0 72 21.5t53 43.5l18 21l61 -62q-4 -7 -11.5 -19.5t-32.5 -44.5t-51.5 -56t-66.5 -44t-79 -20q-58 0 -117 22.5t-114 45t-105 22.5q-36 0 -75 -22.5t-60 -44.5l-21 -23z" />
<glyph unicode="&#xd2;" horiz-adv-x="1505" d="M119 479q0 -232 132 -365.5t361 -133.5q175 0 327 68.5t263 192.5t174.5 307.5t63.5 403.5q0 226 -137 364t-381 138q-170 0 -318 -71.5t-255 -198.5t-168.5 -309.5t-61.5 -395.5zM344 500q0 210 66 387t191.5 285t285.5 108q153 0 240 -86.5t87 -267.5q0 -217 -70 -393 t-198 -277.5t-289 -101.5q-147 0 -230 88.5t-83 257.5zM618 1724l76 162l447 -250l-56 -112z" />
<glyph unicode="&#xd3;" horiz-adv-x="1505" d="M119 479q0 -232 132 -365.5t361 -133.5q175 0 327 68.5t263 192.5t174.5 307.5t63.5 403.5q0 226 -137 364t-381 138q-170 0 -318 -71.5t-255 -198.5t-168.5 -309.5t-61.5 -395.5zM344 500q0 210 66 387t191.5 285t285.5 108q153 0 240 -86.5t87 -267.5q0 -217 -70 -393 t-198 -277.5t-289 -101.5q-147 0 -230 88.5t-83 257.5zM801 1636l444 248l76 -162l-467 -194z" />
<glyph unicode="&#xd4;" horiz-adv-x="1505" d="M119 479q0 -232 132 -365.5t361 -133.5q175 0 327 68.5t263 192.5t174.5 307.5t63.5 403.5q0 226 -137 364t-381 138q-170 0 -318 -71.5t-255 -198.5t-168.5 -309.5t-61.5 -395.5zM344 500q0 210 66 387t191.5 285t285.5 108q153 0 240 -86.5t87 -267.5q0 -217 -70 -393 t-198 -277.5t-289 -101.5q-147 0 -230 88.5t-83 257.5zM555 1628l330 225l121 11l251 -236l-96 -92l-235 170l-305 -170z" />
<glyph unicode="&#xd5;" horiz-adv-x="1505" d="M119 479q0 -232 132 -365.5t361 -133.5q175 0 327 68.5t263 192.5t174.5 307.5t63.5 403.5q0 226 -137 364t-381 138q-170 0 -318 -71.5t-255 -198.5t-168.5 -309.5t-61.5 -395.5zM344 500q0 210 66 387t191.5 285t285.5 108q153 0 240 -86.5t87 -267.5q0 -217 -70 -393 t-198 -277.5t-289 -101.5q-147 0 -230 88.5t-83 257.5zM553 1630q5 8 13 21t35 46t54.5 58.5t69 46.5t80.5 21q58 0 117.5 -23.5t114.5 -47t104 -23.5q36 0 72 21.5t53 43.5l18 21l62 -62q-4 -7 -11.5 -19.5t-32.5 -44.5t-52 -56t-67 -44t-79 -20q-58 0 -117 22.5t-114 45 t-105 22.5q-36 0 -75 -22.5t-60 -44.5l-21 -23z" />
<glyph unicode="&#xd6;" horiz-adv-x="1505" d="M119 479q0 -232 132 -365.5t361 -133.5q175 0 327 68.5t263 192.5t174.5 307.5t63.5 403.5q0 226 -137 364t-381 138q-170 0 -318 -71.5t-255 -198.5t-168.5 -309.5t-61.5 -395.5zM344 500q0 210 66 387t191.5 285t285.5 108q153 0 240 -86.5t87 -267.5q0 -217 -70 -393 t-198 -277.5t-289 -101.5q-147 0 -230 88.5t-83 257.5zM629 1659q0 64 36.5 108.5t94.5 44.5q44 0 69 -25t25 -69q0 -62 -38.5 -106.5t-94.5 -44.5q-43 0 -67.5 24.5t-24.5 67.5zM1040 1659q0 64 36.5 108.5t94.5 44.5q44 0 69.5 -25t25.5 -69q0 -62 -38.5 -106.5 t-94.5 -44.5q-43 0 -68 24.5t-25 67.5z" />
<glyph unicode="&#xd7;" horiz-adv-x="1288" d="M102 166l430 377l-309 377l131 114l308 -377l430 377l94 -114l-428 -377l307 -377l-131 -115l-307 377l-430 -377z" />
<glyph unicode="&#xd8;" horiz-adv-x="1505" d="M49 -143l201 268q-119 135 -119 354q0 213 60 395.5t165 309.5t251.5 198.5t316.5 71.5q157 0 274 -63l162 217l117 -72l-170 -227q125 -128 125 -336q0 -227 -62 -415t-171 -314t-259.5 -195t-325.5 -69q-147 0 -256 59l-190 -254zM346 500q0 -115 39 -195l696 932 q-71 43 -192 43q-160 0 -285.5 -108t-191.5 -285t-66 -387zM477 201q70 -47 182 -47q162 0 289.5 102t198 282.5t70.5 407.5q0 113 -39 189z" />
<glyph unicode="&#xd9;" horiz-adv-x="1566" d="M193 1311l18 112l561 11l-20 -123l-179 -41l-114 -717q-13 -80 -13 -141q0 -124 62.5 -191t218.5 -67q183 0 272.5 98.5t126.5 331.5l111 686l-184 41l18 112l565 11l-20 -123l-172 -41l-107 -666q-18 -118 -49.5 -211t-83 -172t-122.5 -131t-170.5 -81t-223.5 -29 t-213 29.5t-140 85t-74 128t-23 166.5q0 64 14 164l115 717zM606 1724l76 162l446 -250l-55 -112z" />
<glyph unicode="&#xda;" horiz-adv-x="1566" d="M193 1311l18 112l561 11l-20 -123l-179 -41l-114 -717q-13 -80 -13 -141q0 -124 62.5 -191t218.5 -67q183 0 272.5 98.5t126.5 331.5l111 686l-184 41l18 112l565 11l-20 -123l-172 -41l-107 -666q-18 -118 -49.5 -211t-83 -172t-122.5 -131t-170.5 -81t-223.5 -29 t-213 29.5t-140 85t-74 128t-23 166.5q0 64 14 164l115 717zM768 1636l444 248l76 -162l-467 -194z" />
<glyph unicode="&#xdb;" horiz-adv-x="1566" d="M193 1311l18 112l561 11l-20 -123l-179 -41l-114 -717q-13 -80 -13 -141q0 -124 62.5 -191t218.5 -67q183 0 272.5 98.5t126.5 331.5l111 686l-184 41l18 112l565 11l-20 -123l-172 -41l-107 -666q-18 -118 -49.5 -211t-83 -172t-122.5 -131t-170.5 -81t-223.5 -29 t-213 29.5t-140 85t-74 128t-23 166.5q0 64 14 164l115 717zM573 1628l330 225l121 11l252 -236l-96 -92l-236 170l-305 -170z" />
<glyph unicode="&#xdc;" horiz-adv-x="1566" d="M193 1311l18 112l561 11l-20 -123l-179 -41l-114 -717q-13 -80 -13 -141q0 -124 62.5 -191t218.5 -67q183 0 272.5 98.5t126.5 331.5l111 686l-184 41l18 112l565 11l-20 -123l-172 -41l-107 -666q-18 -118 -49.5 -211t-83 -172t-122.5 -131t-170.5 -81t-223.5 -29 t-213 29.5t-140 85t-74 128t-23 166.5q0 64 14 164l115 717zM645 1659q0 64 36.5 108.5t94.5 44.5q44 0 69 -25t25 -69q0 -62 -38.5 -106.5t-94.5 -44.5q-43 0 -67.5 24.5t-24.5 67.5zM1057 1659q0 64 36.5 108.5t94.5 44.5q44 0 69 -25t25 -69q0 -62 -38.5 -106.5 t-94.5 -44.5q-43 0 -67.5 24.5t-24.5 67.5z" />
<glyph unicode="&#xdd;" horiz-adv-x="1241" d="M100 1311l19 112l317 11l205 -750l344 588l-184 39l20 112l551 11l-20 -123l-164 -41l-506 -797l-49 -309l170 -41l-21 -123h-559l21 123l184 41l57 373l-213 733zM666 1636l444 248l76 -162l-467 -194z" />
<glyph unicode="&#xde;" horiz-adv-x="1196" d="M-2 0l18 123l181 41l176 1106l-166 41l16 112l557 11l-20 -123l-178 -41l-19 -113h213q192 0 296 -80t104 -227q0 -245 -166.5 -389t-438.5 -144h-143l-25 -153l168 -41l-20 -123h-553zM455 481h147q173 0 271 83.5t98 236.5q0 192 -232 192h-202z" />
<glyph unicode="&#xdf;" horiz-adv-x="1380" d="M-242 -471l27 145h115q103 0 162 60t79 184l160 1004h-213l21 133l217 20l10 58q40 220 175.5 342t342.5 122q118 0 206 -25.5t144 -87.5t56 -157q0 -59 -19 -110.5t-48.5 -88t-66 -69t-73 -60.5t-66 -55t-48.5 -59.5t-19 -67.5q0 -38 21.5 -68.5t56 -52t76.5 -42 t83.5 -44.5t76 -53t56 -74t21.5 -102q0 -110 -71 -204t-180 -145.5t-224 -51.5q-76 0 -149.5 11t-108.5 23l-35 11l47 294h129l6 -165q37 -21 133 -21q101 0 167.5 52t66.5 132q0 38 -21.5 68.5t-55.5 52.5t-75.5 43.5t-82.5 45.5t-75 53t-55.5 72.5t-21.5 97.5q0 66 19 120 t50 90.5t68 68t74 58.5t68 55.5t50 65.5t19 82q0 154 -213 154q-110 0 -195.5 -75t-107.5 -214l-195 -1196q-16 -101 -46 -179t-79.5 -141.5t-126 -97t-176.5 -33.5q-36 0 -75 5t-60 11z" />
<glyph unicode="&#xe0;" horiz-adv-x="1214" d="M63 338q0 146 34 272t92.5 216t136.5 154t166.5 95t181.5 31q59 0 116.5 -15.5t85.5 -30.5l27 -16l62 41h112l-147 -921l178 -31l-18 -113l-381 -20l82 377q-7 -14 -15.5 -30.5t-34 -58.5t-52 -78.5t-68 -80.5t-83.5 -75t-96.5 -52.5t-109.5 -21.5q-116 0 -192.5 102 t-76.5 256zM268 369q0 -104 34.5 -159.5t90.5 -55.5q50 0 100.5 30.5t91 79.5t78 107.5t65 117.5t48 108t30.5 79l11 31l41 215q-78 30 -184 30q-60 0 -117 -21t-110 -67t-92.5 -112.5t-63 -165t-23.5 -217.5zM379 1491l88 154l422 -302l-64 -108z" />
<glyph unicode="&#xe1;" horiz-adv-x="1214" d="M63 338q0 146 34 272t92.5 216t136.5 154t166.5 95t181.5 31q59 0 116.5 -15.5t85.5 -30.5l27 -16l62 41h112l-147 -921l178 -31l-18 -113l-381 -20l82 377q-7 -14 -15.5 -30.5t-34 -58.5t-52 -78.5t-68 -80.5t-83.5 -75t-96.5 -52.5t-109.5 -21.5q-116 0 -192.5 102 t-76.5 256zM268 369q0 -104 34.5 -159.5t90.5 -55.5q50 0 100.5 30.5t91 79.5t78 107.5t65 117.5t48 108t30.5 79l11 31l41 215q-78 30 -184 30q-60 0 -117 -21t-110 -67t-92.5 -112.5t-63 -165t-23.5 -217.5zM526 1327l422 301l88 -153l-446 -256z" />
<glyph unicode="&#xe2;" horiz-adv-x="1214" d="M63 338q0 146 34 272t92.5 216t136.5 154t166.5 95t181.5 31q59 0 116.5 -15.5t85.5 -30.5l27 -16l62 41h112l-147 -921l178 -31l-18 -113l-381 -20l82 377q-7 -14 -15.5 -30.5t-34 -58.5t-52 -78.5t-68 -80.5t-83.5 -75t-96.5 -52.5t-109.5 -21.5q-116 0 -192.5 102 t-76.5 256zM268 369q0 -104 34.5 -159.5t90.5 -55.5q50 0 100.5 30.5t91 79.5t78 107.5t65 117.5t48 108t30.5 79l11 31l41 215q-78 30 -184 30q-60 0 -117 -21t-110 -67t-92.5 -112.5t-63 -165t-23.5 -217.5zM356 1356l332 266l121 10l250 -276l-94 -92l-236 200l-305 -200 z" />
<glyph unicode="&#xe3;" horiz-adv-x="1214" d="M63 338q0 146 34 272t92.5 216t136.5 154t166.5 95t181.5 31q59 0 116.5 -15.5t85.5 -30.5l27 -16l62 41h112l-147 -921l178 -31l-18 -113l-381 -20l82 377q-7 -14 -15.5 -30.5t-34 -58.5t-52 -78.5t-68 -80.5t-83.5 -75t-96.5 -52.5t-109.5 -21.5q-116 0 -192.5 102 t-76.5 256zM268 369q0 -104 34.5 -159.5t90.5 -55.5q50 0 100.5 30.5t91 79.5t78 107.5t65 117.5t48 108t30.5 79l11 31l41 215q-78 30 -184 30q-60 0 -117 -21t-110 -67t-92.5 -112.5t-63 -165t-23.5 -217.5zM336 1372q5 8 13 21t35 46t54.5 58.5t69 46.5t80.5 21 q47 0 92.5 -15t76 -32.5t72.5 -32.5t82 -15q22 0 45.5 9t40.5 21.5t31 25t22 21.5l7 9l59 -71q-4 -8 -11.5 -20t-32.5 -44t-52 -56.5t-67 -44.5t-79 -20q-47 0 -93 14t-77 31.5t-73.5 31.5t-81.5 14q-36 0 -75 -22.5t-60 -45.5l-21 -23z" />
<glyph unicode="&#xe4;" horiz-adv-x="1214" d="M63 338q0 146 34 272t92.5 216t136.5 154t166.5 95t181.5 31q59 0 116.5 -15.5t85.5 -30.5l27 -16l62 41h112l-147 -921l178 -31l-18 -113l-381 -20l82 377q-7 -14 -15.5 -30.5t-34 -58.5t-52 -78.5t-68 -80.5t-83.5 -75t-96.5 -52.5t-109.5 -21.5q-116 0 -192.5 102 t-76.5 256zM268 369q0 -104 34.5 -159.5t90.5 -55.5q50 0 100.5 30.5t91 79.5t78 107.5t65 117.5t48 108t30.5 79l11 31l41 215q-78 30 -184 30q-60 0 -117 -21t-110 -67t-92.5 -112.5t-63 -165t-23.5 -217.5zM410 1403q0 64 36.5 108.5t94.5 44.5q44 0 69 -25t25 -69 q0 -62 -38.5 -106.5t-94.5 -44.5q-43 0 -67.5 24.5t-24.5 67.5zM821 1403q0 64 36.5 108.5t94.5 44.5q44 0 69.5 -25t25.5 -69q0 -62 -39 -106.5t-95 -44.5q-43 0 -67.5 24.5t-24.5 67.5z" />
<glyph unicode="&#xe5;" horiz-adv-x="1214" d="M63 338q0 146 34 272t92.5 216t136.5 154t166.5 95t181.5 31q59 0 116.5 -15.5t85.5 -30.5l27 -16l62 41h112l-147 -921l178 -31l-18 -113l-381 -20l82 377q-7 -14 -15.5 -30.5t-34 -58.5t-52 -78.5t-68 -80.5t-83.5 -75t-96.5 -52.5t-109.5 -21.5q-116 0 -192.5 102 t-76.5 256zM268 369q0 -104 34.5 -159.5t90.5 -55.5q50 0 100.5 30.5t91 79.5t78 107.5t65 117.5t48 108t30.5 79l11 31l41 215q-78 30 -184 30q-60 0 -117 -21t-110 -67t-92.5 -112.5t-63 -165t-23.5 -217.5zM594 1405q0 108 81.5 191t188.5 83q83 0 141 -49.5t58 -136.5 q0 -108 -81.5 -191t-188.5 -83q-86 0 -142.5 51.5t-56.5 134.5zM715 1417q0 -46 24 -71t70 -25q59 0 96 47.5t37 112.5q0 96 -92 96q-59 0 -97 -48t-38 -112z" />
<glyph unicode="&#xe6;" horiz-adv-x="1595" d="M47 225q0 186 134 279.5t368 93.5h156l26 170q4 28 4 41q0 70 -42 106.5t-120 36.5q-56 0 -108 -7.5t-76 -14.5l-24 -8l-58 -154h-117l33 256q24 9 64.5 22.5t145 36.5t185.5 23q126 0 193 -37.5t84 -122.5q147 160 348 160q155 0 246.5 -72t91.5 -194 q0 -181 -193.5 -282t-517.5 -101q-6 -50 -6 -92q0 -114 55 -168t171 -54q67 0 148.5 23.5t129.5 46.5l49 23l62 -105q-9 -6 -24.5 -16.5t-64.5 -36.5t-99 -45.5t-122.5 -36t-140.5 -16.5q-127 0 -210 57t-116 160q-77 -96 -186 -156.5t-213 -60.5q-117 0 -186.5 65.5 t-69.5 179.5zM242 266q0 -53 39 -88t94 -35q73 0 142.5 50.5t113 124t53.5 147.5h-137q-305 0 -305 -199zM889 600q225 0 361 56.5t136 162.5q0 133 -153 133q-112 0 -208 -99.5t-136 -252.5z" />
<glyph unicode="&#xe7;" horiz-adv-x="931" d="M68 358q0 222 78.5 393t215.5 263t310 92q73 0 144.5 -20.5t106.5 -41.5l35 -20l-45 -276h-133l-6 174q-49 20 -133 20q-112 0 -198 -82t-128.5 -211t-42.5 -280q0 -113 50.5 -169.5t144.5 -56.5q64 0 140.5 23.5t121.5 46.5l45 23l62 -103q-17 -12 -46.5 -31.5 t-113.5 -58.5t-160 -55l-12 -76q69 -12 108 -51t39 -97q0 -90 -69.5 -151.5t-163.5 -61.5q-62 0 -115 12t-75 24l-23 12l61 84q63 -33 135 -33q48 0 83.5 28t35.5 72q0 42 -39 65t-110 23l22 144q-146 9 -235.5 107.5t-89.5 268.5z" />
<glyph unicode="&#xe8;" horiz-adv-x="1015" d="M61 348q0 156 47 297t126.5 241.5t189 160t229.5 59.5q155 0 246.5 -72t91.5 -194q0 -117 -91 -207t-254.5 -139.5t-373.5 -49.5q-6 -47 -6 -88q0 -109 55.5 -161t170.5 -52q67 0 150.5 23.5t133.5 46.5l51 23l62 -105q-9 -6 -25 -16.5t-66.5 -36.5t-102 -45.5 t-124.5 -36t-141 -16.5q-169 0 -269 99.5t-100 268.5zM291 588q219 0 362.5 65t143.5 166q0 133 -154 133q-113 0 -213 -102t-139 -262zM373 1491l88 154l422 -302l-64 -108z" />
<glyph unicode="&#xe9;" horiz-adv-x="1015" d="M61 348q0 156 47 297t126.5 241.5t189 160t229.5 59.5q155 0 246.5 -72t91.5 -194q0 -117 -91 -207t-254.5 -139.5t-373.5 -49.5q-6 -47 -6 -88q0 -109 55.5 -161t170.5 -52q67 0 150.5 23.5t133.5 46.5l51 23l62 -105q-9 -6 -25 -16.5t-66.5 -36.5t-102 -45.5 t-124.5 -36t-141 -16.5q-169 0 -269 99.5t-100 268.5zM291 588q219 0 362.5 65t143.5 166q0 133 -154 133q-113 0 -213 -102t-139 -262zM487 1327l422 301l88 -153l-446 -256z" />
<glyph unicode="&#xea;" horiz-adv-x="1015" d="M61 348q0 156 47 297t126.5 241.5t189 160t229.5 59.5q155 0 246.5 -72t91.5 -194q0 -117 -91 -207t-254.5 -139.5t-373.5 -49.5q-6 -47 -6 -88q0 -109 55.5 -161t170.5 -52q67 0 150.5 23.5t133.5 46.5l51 23l62 -105q-9 -6 -25 -16.5t-66.5 -36.5t-102 -45.5 t-124.5 -36t-141 -16.5q-169 0 -269 99.5t-100 268.5zM287 1356l331 266l121 10l250 -276l-94 -92l-236 200l-305 -200zM291 588q219 0 362.5 65t143.5 166q0 133 -154 133q-113 0 -213 -102t-139 -262z" />
<glyph unicode="&#xeb;" horiz-adv-x="1015" d="M61 348q0 156 47 297t126.5 241.5t189 160t229.5 59.5q155 0 246.5 -72t91.5 -194q0 -117 -91 -207t-254.5 -139.5t-373.5 -49.5q-6 -47 -6 -88q0 -109 55.5 -161t170.5 -52q67 0 150.5 23.5t133.5 46.5l51 23l62 -105q-9 -6 -25 -16.5t-66.5 -36.5t-102 -45.5 t-124.5 -36t-141 -16.5q-169 0 -269 99.5t-100 268.5zM291 588q219 0 362.5 65t143.5 166q0 133 -154 133q-113 0 -213 -102t-139 -262zM383 1403q0 64 36.5 108.5t94.5 44.5q44 0 69 -25t25 -69q0 -62 -38.5 -106.5t-94.5 -44.5q-43 0 -67.5 24.5t-24.5 67.5zM795 1403 q0 64 36.5 108.5t94.5 44.5q44 0 69 -25t25 -69q0 -62 -38.5 -106.5t-94.5 -44.5q-43 0 -67.5 24.5t-24.5 67.5z" />
<glyph unicode="&#xec;" horiz-adv-x="585" d="M113 963l174 -41l-148 -922l377 20l19 113l-175 31l148 921l-375 -10zM129 1491l88 154l422 -302l-64 -108z" />
<glyph unicode="&#xed;" horiz-adv-x="585" d="M113 963l174 -41l-148 -922l377 20l19 113l-175 31l148 921l-375 -10zM266 1327l422 301l88 -153l-446 -256z" />
<glyph unicode="&#xee;" horiz-adv-x="585" d="M82 1346l332 276l121 10l243 -286l-94 -93l-229 222l-308 -222zM113 963l174 -41l-148 -922l377 20l19 113l-175 31l148 921l-375 -10z" />
<glyph unicode="&#xef;" horiz-adv-x="585" d="M113 963l174 -41l-148 -922l377 20l19 113l-175 31l148 921l-375 -10zM127 1403q0 64 36.5 108.5t94.5 44.5q44 0 69 -25t25 -69q0 -62 -38.5 -106.5t-94.5 -44.5q-43 0 -67.5 24.5t-24.5 67.5zM518 1403q0 64 36.5 108.5t94.5 44.5q44 0 69 -25t25 -69 q0 -62 -38.5 -106.5t-94.5 -44.5q-43 0 -67.5 24.5t-24.5 67.5z" />
<glyph unicode="&#xf0;" horiz-adv-x="1163" d="M68 379q0 192 74.5 346.5t208 242t300.5 87.5q68 0 129 -21.5t88 -43.5l27 -21q-43 205 -172 331l-283 -153l-61 110l239 132q-60 38 -192 86l80 129q155 -39 278 -125l242 127l64 -113l-203 -109q205 -218 205 -598q0 -137 -23.5 -257t-73.5 -221.5t-124 -174 t-179.5 -113t-234.5 -40.5q-183 0 -286 106.5t-103 292.5zM283 399q0 -120 56.5 -188t168.5 -68q93 0 164 42t112.5 113.5t62.5 159.5t21 187q0 246 -237 246q-114 0 -194 -68.5t-117 -177.5t-37 -246z" />
<glyph unicode="&#xf1;" horiz-adv-x="1298" d="M106 963l19 112l375 10l-92 -397q6 13 14.5 31t34 61.5t53.5 82.5t72 85t90.5 79.5t107.5 56t125 22.5q228 0 228 -252q0 -42 -11 -117l-94 -573l174 -31l-18 -113l-377 -20l115 707q8 62 8 90q0 135 -107 135q-54 0 -107.5 -31t-96 -80.5t-80.5 -109.5t-65.5 -120.5 t-48 -110t-30.5 -80.5l-10 -31l-59 -369h-195l148 922zM401 1372q5 8 13 21t35 46t54.5 58.5t69 46.5t80.5 21q47 0 92.5 -15t76.5 -32.5t73 -32.5t82 -15q36 0 72 21.5t55 42.5l18 22l60 -71q-4 -8 -11.5 -20t-32.5 -44t-52 -56.5t-67 -44.5t-79 -20q-58 0 -115 23 t-109.5 45.5t-101.5 22.5q-23 0 -47.5 -9.5t-43 -22.5t-33.5 -26.5t-23 -22.5l-8 -10z" />
<glyph unicode="&#xf2;" horiz-adv-x="1126" d="M70 385q0 -185 101 -295t275 -110q131 0 243.5 50.5t194 142.5t127.5 228.5t46 300.5q0 181 -100.5 292.5t-284.5 111.5q-266 0 -434 -200t-168 -521zM274 379q0 153 39 278t123 205t199 80q100 0 159.5 -56t59.5 -179q0 -165 -42.5 -291.5t-127.5 -199.5t-201 -73 q-97 0 -153 58.5t-56 177.5zM397 1491l88 154l422 -302l-63 -108z" />
<glyph unicode="&#xf3;" horiz-adv-x="1126" d="M70 385q0 -185 101 -295t275 -110q131 0 243.5 50.5t194 142.5t127.5 228.5t46 300.5q0 181 -100.5 292.5t-284.5 111.5q-266 0 -434 -200t-168 -521zM274 379q0 153 39 278t123 205t199 80q100 0 159.5 -56t59.5 -179q0 -165 -42.5 -291.5t-127.5 -199.5t-201 -73 q-97 0 -153 58.5t-56 177.5zM506 1327l422 301l88 -153l-447 -256z" />
<glyph unicode="&#xf4;" horiz-adv-x="1126" d="M70 385q0 -185 101 -295t275 -110q131 0 243.5 50.5t194 142.5t127.5 228.5t46 300.5q0 181 -100.5 292.5t-284.5 111.5q-266 0 -434 -200t-168 -521zM274 379q0 153 39 278t123 205t199 80q100 0 159.5 -56t59.5 -179q0 -165 -42.5 -291.5t-127.5 -199.5t-201 -73 q-97 0 -153 58.5t-56 177.5zM362 1356l332 266l121 10l250 -276l-94 -92l-236 200l-305 -200z" />
<glyph unicode="&#xf5;" horiz-adv-x="1126" d="M70 385q0 -185 101 -295t275 -110q131 0 243.5 50.5t194 142.5t127.5 228.5t46 300.5q0 181 -100.5 292.5t-284.5 111.5q-266 0 -434 -200t-168 -521zM274 379q0 153 39 278t123 205t199 80q100 0 159.5 -56t59.5 -179q0 -165 -42.5 -291.5t-127.5 -199.5t-201 -73 q-97 0 -153 58.5t-56 177.5zM330 1372q5 8 13 21t35 46t54.5 58.5t69 46.5t80.5 21q47 0 92.5 -15t76 -32.5t72.5 -32.5t82 -15q22 0 45.5 9t40.5 21.5t31 25t22 21.5l7 9l59 -71q-4 -8 -11.5 -20t-32.5 -44t-52 -56.5t-67 -44.5t-79 -20q-47 0 -93 14t-77 31.5t-73.5 31.5 t-81.5 14q-36 0 -75 -22.5t-60 -45.5l-21 -23z" />
<glyph unicode="&#xf6;" horiz-adv-x="1126" d="M70 385q0 -185 101 -295t275 -110q131 0 243.5 50.5t194 142.5t127.5 228.5t46 300.5q0 181 -100.5 292.5t-284.5 111.5q-266 0 -434 -200t-168 -521zM274 379q0 153 39 278t123 205t199 80q100 0 159.5 -56t59.5 -179q0 -165 -42.5 -291.5t-127.5 -199.5t-201 -73 q-97 0 -153 58.5t-56 177.5zM391 1403q0 64 36.5 108.5t94.5 44.5q44 0 69 -25t25 -69q0 -62 -38.5 -106.5t-94.5 -44.5q-43 0 -67.5 24.5t-24.5 67.5zM803 1403q0 64 36.5 108.5t94.5 44.5q44 0 69 -25t25 -69q0 -62 -38.5 -106.5t-94.5 -44.5q-43 0 -67.5 24.5t-24.5 67.5 z" />
<glyph unicode="&#xf7;" horiz-adv-x="1273" d="M102 461l27 164h1042l-24 -164h-1045zM434 92q0 72 42 123t116 51q54 0 83.5 -28t29.5 -84q0 -71 -41.5 -122.5t-118.5 -51.5q-111 0 -111 112zM567 932q0 72 42 123t116 51q54 0 83.5 -28.5t29.5 -84.5q0 -71 -41.5 -122.5t-118.5 -51.5q-111 0 -111 113z" />
<glyph unicode="&#xf8;" horiz-adv-x="1187" d="M4 -143l178 241q-90 104 -90 271q0 327 172 532t438 205q112 0 199 -41l160 215l110 -72l-163 -221q90 -104 90 -250q0 -173 -48 -316.5t-132 -239.5t-200 -148.5t-251 -52.5q-100 0 -178 38l-174 -233zM297 379q0 -66 14 -107l480 643q-53 27 -119 27q-116 0 -203 -79.5 t-129.5 -206t-42.5 -277.5zM399 168q48 -25 109 -25q176 0 280.5 157t104.5 407q0 58 -16 104z" />
<glyph unicode="&#xf9;" horiz-adv-x="1302" d="M96 963l19 112l374 10q-78 -471 -99 -612.5t-21 -183.5q0 -135 106 -135q56 0 110 31t96 80.5t79.5 109.5t64.5 120.5t47 110t30 80.5l9 31l62 368h194l-147 -921l176 -31l-18 -113l-377 -20l84 397q-4 -11 -14 -31.5t-34 -62t-52.5 -81.5t-71.5 -85t-89 -79t-107 -56 t-124 -22q-227 0 -227 249q0 61 17.5 177t86.5 516zM410 1491l88 154l422 -302l-64 -108z" />
<glyph unicode="&#xfa;" horiz-adv-x="1302" d="M96 963l19 112l374 10q-78 -471 -99 -612.5t-21 -183.5q0 -135 106 -135q56 0 110 31t96 80.5t79.5 109.5t64.5 120.5t47 110t30 80.5l9 31l62 368h194l-147 -921l176 -31l-18 -113l-377 -20l84 397q-4 -11 -14 -31.5t-34 -62t-52.5 -81.5t-71.5 -85t-89 -79t-107 -56 t-124 -22q-227 0 -227 249q0 61 17.5 177t86.5 516zM537 1327l421 301l89 -153l-447 -256z" />
<glyph unicode="&#xfb;" horiz-adv-x="1302" d="M96 963l19 112l374 10q-78 -471 -99 -612.5t-21 -183.5q0 -135 106 -135q56 0 110 31t96 80.5t79.5 109.5t64.5 120.5t47 110t30 80.5l9 31l62 368h194l-147 -921l176 -31l-18 -113l-377 -20l84 397q-4 -11 -14 -31.5t-34 -62t-52.5 -81.5t-71.5 -85t-89 -79t-107 -56 t-124 -22q-227 0 -227 249q0 61 17.5 177t86.5 516zM348 1356l332 266l121 10l250 -276l-95 -92l-235 200l-305 -200z" />
<glyph unicode="&#xfc;" horiz-adv-x="1302" d="M96 963l19 112l374 10q-78 -471 -99 -612.5t-21 -183.5q0 -135 106 -135q56 0 110 31t96 80.5t79.5 109.5t64.5 120.5t47 110t30 80.5l9 31l62 368h194l-147 -921l176 -31l-18 -113l-377 -20l84 397q-4 -11 -14 -31.5t-34 -62t-52.5 -81.5t-71.5 -85t-89 -79t-107 -56 t-124 -22q-227 0 -227 249q0 61 17.5 177t86.5 516zM406 1403q0 64 36.5 108.5t94.5 44.5q44 0 69 -25t25 -69q0 -62 -38.5 -106.5t-94.5 -44.5q-43 0 -67.5 24.5t-24.5 67.5zM817 1403q0 64 36.5 108.5t94.5 44.5q44 0 69 -25t25 -69q0 -62 -38.5 -106.5t-94.5 -44.5 q-43 0 -67.5 24.5t-24.5 67.5z" />
<glyph unicode="&#xfd;" horiz-adv-x="1079" d="M-53 -459l41 131q81 -10 153 -10q103 0 160 55t121 203l-266 1004l-142 39l23 112l309 10l172 -751l19 -139l303 731l-154 37l19 112l450 10l-20 -122l-115 -33l-365 -862q-48 -113 -81 -185t-71 -141.5t-70.5 -108.5t-72.5 -70t-83.5 -43t-98.5 -12q-52 0 -109.5 8 t-89.5 16zM506 1327l422 301l88 -153l-447 -256z" />
<glyph unicode="&#xfe;" horiz-adv-x="1183" d="M-129 -471l18 113l168 41l277 1730l-170 41l18 113l375 10l-80 -492l-82 -376q6 16 22.5 51t58 98t90.5 115.5t124 92.5t154 40q67 0 120.5 -30t87 -81.5t51 -117.5t17.5 -140q0 -170 -53 -314.5t-141.5 -240t-203 -149t-237.5 -53.5q-69 0 -178 28l-49 -325l205 -41 l-19 -113h-573zM334 164q80 -31 172 -31q54 0 109.5 21.5t109.5 68t96 112t68 162.5t26 210q0 95 -35.5 160t-107.5 65q-51 0 -100.5 -30.5t-87.5 -79.5t-72 -107.5t-58 -117.5t-42 -108t-26 -79l-9 -31z" />
<glyph unicode="&#xff;" horiz-adv-x="1079" d="M-53 -459l41 131q81 -10 153 -10q103 0 160 55t121 203l-266 1004l-142 39l23 112l309 10l172 -751l19 -139l303 731l-154 37l19 112l450 10l-20 -122l-115 -33l-365 -862q-48 -113 -81 -185t-71 -141.5t-70.5 -108.5t-72.5 -70t-83.5 -43t-98.5 -12q-52 0 -109.5 8 t-89.5 16zM315 1403q0 64 36.5 108.5t94.5 44.5q44 0 69.5 -25t25.5 -69q0 -62 -38.5 -106.5t-94.5 -44.5q-43 0 -68 24.5t-25 67.5zM727 1403q0 64 36.5 108.5t94.5 44.5q44 0 69 -25t25 -69q0 -62 -38.5 -106.5t-94.5 -44.5q-43 0 -67.5 24.5t-24.5 67.5z" />
<glyph unicode="&#x152;" horiz-adv-x="1824" d="M123 500q0 212 61 392t167.5 302.5t252 191t311.5 68.5q59 0 150.5 -10t122.5 -10h682l-55 -349h-115l-21 185h-452l-72 -441h467l-25 -163h-467l-79 -502h465l75 209h135l-63 -373h-729q-36 0 -154.5 -10t-173.5 -10q-220 0 -351.5 143.5t-131.5 376.5zM338 500 q0 -169 83 -257.5t230 -88.5q36 0 84.5 2.5t79.5 5.5l31 2l176 1106q-59 10 -141 10q-160 0 -285.5 -108t-191.5 -285t-66 -387z" />
<glyph unicode="&#x153;" horiz-adv-x="1748" d="M68 369q0 -177 100 -283t268 -106q128 0 238 51t190 145q36 -94 116.5 -145t201.5 -51q68 0 139 15.5t124.5 37.5t97 44.5t66.5 38.5l23 15l-61 105q-20 -10 -53.5 -25.5t-120.5 -41.5t-154 -26q-116 0 -170.5 54t-54.5 168q0 43 6 92q324 0 517.5 101t193.5 282 q0 122 -91.5 194t-246.5 72q-113 0 -211 -52.5t-172 -148.5q-41 92 -126.5 146.5t-215.5 54.5q-263 0 -433.5 -205t-170.5 -532zM272 379q0 151 42 277.5t127.5 206t199.5 79.5q99 0 157 -55.5t58 -179.5q0 -164 -45.5 -291.5t-132.5 -200t-201 -72.5q-96 0 -150.5 58.5 t-54.5 177.5zM1042 600q40 153 136 252.5t208 99.5q154 0 154 -133q0 -106 -136.5 -162.5t-361.5 -56.5z" />
<glyph unicode="&#x178;" horiz-adv-x="1241" d="M100 1311l19 112l317 11l205 -750l344 588l-184 39l20 112l551 11l-20 -123l-164 -41l-506 -797l-49 -309l170 -41l-21 -123h-559l21 123l184 41l57 373l-213 733zM436 1659q0 64 36.5 108.5t94.5 44.5q44 0 69.5 -25t25.5 -69q0 -62 -39 -106.5t-95 -44.5 q-43 0 -67.5 24.5t-24.5 67.5zM848 1659q0 64 36.5 108.5t94.5 44.5q44 0 69 -25t25 -69q0 -62 -38.5 -106.5t-94.5 -44.5q-43 0 -67.5 24.5t-24.5 67.5z" />
<glyph unicode="&#x2c6;" horiz-adv-x="702" d="M0 1356l332 266l121 10l249 -276l-94 -92l-235 200l-305 -200z" />
<glyph unicode="&#x2dc;" horiz-adv-x="780" d="M0 1372q5 8 13 21t35 46t54.5 58.5t69 46.5t80.5 21q47 0 92.5 -15t76 -32.5t72.5 -32.5t82 -15q22 0 45.5 9t40.5 21.5t31 25t22 21.5l7 9l59 -71q-4 -8 -11.5 -20t-32.5 -44t-51.5 -56.5t-66.5 -44.5t-79 -20q-58 0 -115 23t-109.5 45.5t-101.5 22.5q-36 0 -75 -22.5 t-60 -45.5l-21 -23z" />
<glyph unicode="&#x2000;" horiz-adv-x="943" />
<glyph unicode="&#x2001;" horiz-adv-x="1886" />
<glyph unicode="&#x2002;" horiz-adv-x="943" />
<glyph unicode="&#x2003;" horiz-adv-x="1886" />
<glyph unicode="&#x2004;" horiz-adv-x="628" />
<glyph unicode="&#x2005;" horiz-adv-x="471" />
<glyph unicode="&#x2006;" horiz-adv-x="314" />
<glyph unicode="&#x2007;" horiz-adv-x="314" />
<glyph unicode="&#x2008;" horiz-adv-x="235" />
<glyph unicode="&#x2009;" horiz-adv-x="377" />
<glyph unicode="&#x200a;" horiz-adv-x="104" />
<glyph unicode="&#x2010;" horiz-adv-x="782" d="M100 471l29 174h520l-28 -174h-521z" />
<glyph unicode="&#x2011;" horiz-adv-x="782" d="M100 471l29 174h520l-28 -174h-521z" />
<glyph unicode="&#x2012;" horiz-adv-x="782" d="M100 471l29 174h520l-28 -174h-521z" />
<glyph unicode="&#x2013;" horiz-adv-x="1028" d="M0 584l25 164h1003l-27 -164h-1001z" />
<glyph unicode="&#x2014;" horiz-adv-x="1939" d="M0 584l27 164h1945l-26 -164h-1946z" />
<glyph unicode="&#x2018;" horiz-adv-x="419" d="M102 1128q0 -112 111 -112q67 0 110.5 49t43.5 113q0 27 -14.5 63t-14.5 55q0 26 36 82t72 99l35 43l-78 77q-12 -11 -32.5 -30.5t-72.5 -77.5t-91.5 -112.5t-72 -124t-32.5 -124.5z" />
<glyph unicode="&#x2019;" horiz-adv-x="497" d="M154 1094l77 -78q12 11 32.5 30.5t72.5 77.5t91.5 112.5t72 124t32.5 124.5q0 112 -110 112q-67 0 -110.5 -48.5t-43.5 -112.5q0 -27 14.5 -63.5t14.5 -55.5q0 -26 -35.5 -82t-71.5 -99z" />
<glyph unicode="&#x201a;" horiz-adv-x="532" d="M0 -279l78 -77q12 11 32.5 30.5t72.5 77.5t91.5 112.5t72 124t32.5 124.5q0 112 -111 112q-67 0 -110 -49t-43 -113q0 -27 14 -63t14 -55q0 -26 -35.5 -82t-71.5 -99z" />
<glyph unicode="&#x201c;" horiz-adv-x="811" d="M102 1128q0 -112 111 -112q67 0 110.5 49t43.5 113q0 27 -14.5 63t-14.5 55q0 26 36 82t72 99l35 43l-78 77q-12 -11 -32.5 -30.5t-72.5 -77.5t-91.5 -112.5t-72 -124t-32.5 -124.5zM494 1128q0 -112 110 -112q67 0 110.5 49t43.5 113q0 27 -14.5 63t-14.5 55 q0 26 35.5 82t71.5 99l36 43l-77 77q-12 -11 -32.5 -30.5t-72.5 -77.5t-91.5 -112.5t-72 -124t-32.5 -124.5z" />
<glyph unicode="&#x201d;" horiz-adv-x="1005" d="M154 1094l77 -78q12 11 32.5 30.5t72.5 77.5t91.5 112.5t72 124t32.5 124.5q0 112 -110 112q-67 0 -110.5 -48.5t-43.5 -112.5q0 -27 14.5 -63.5t14.5 -55.5q0 -26 -35.5 -82t-71.5 -99zM545 1094l78 -78q12 11 32.5 30.5t72.5 77.5t91.5 112.5t72 124t32.5 124.5 q0 112 -111 112q-67 0 -110.5 -48.5t-43.5 -112.5q0 -27 14.5 -63.5t14.5 -55.5q0 -26 -36 -82t-72 -99z" />
<glyph unicode="&#x201e;" horiz-adv-x="913" d="M0 -279l78 -77q12 11 32.5 30.5t72.5 77.5t91.5 112.5t72 124t32.5 124.5q0 112 -111 112q-67 0 -110 -49t-43 -113q0 -27 14 -63t14 -55q0 -26 -35.5 -82t-71.5 -99zM391 -279l78 -77q12 11 32.5 30.5t72.5 77.5t91.5 112.5t72 124t32.5 124.5q0 112 -111 112 q-67 0 -110 -49t-43 -113q0 -27 14.5 -63t14.5 -55q0 -26 -36 -82t-72 -99z" />
<glyph unicode="&#x2022;" horiz-adv-x="1034" d="M154 635q0 113 54 199t134 128t170 42q67 0 126.5 -22t107.5 -63.5t76 -109.5t28 -154q0 -89 -31 -161t-83 -116t-114.5 -67.5t-129.5 -23.5t-126.5 20.5t-107.5 61t-76 109t-28 157.5z" />
<glyph unicode="&#x2026;" horiz-adv-x="1474" d="M119 92q0 72 41.5 123t115.5 51q54 0 83.5 -28t29.5 -84q0 -71 -41.5 -122.5t-118.5 -51.5q-110 0 -110 112zM602 92q0 72 42 123t116 51q112 0 112 -112q0 -71 -41 -122.5t-118 -51.5q-111 0 -111 112zM1083 92q0 72 42 123t116 51q54 0 83.5 -28t29.5 -84 q0 -71 -41.5 -122.5t-118.5 -51.5q-111 0 -111 112z" />
<glyph unicode="&#x202f;" horiz-adv-x="377" />
<glyph unicode="&#x2039;" horiz-adv-x="686" d="M123 498l18 123l338 297l105 -93l-271 -274l172 -305l-114 -82z" />
<glyph unicode="&#x203a;" horiz-adv-x="665" d="M113 254l260 276l-162 306l115 82l237 -334l-18 -123l-328 -297z" />
<glyph unicode="&#x205f;" horiz-adv-x="471" />
<glyph unicode="&#x20ac;" horiz-adv-x="1333" d="M84 489h137q0 -230 117 -369.5t334 -139.5q79 0 159.5 22.5t140 55t107.5 64.5t73 54l24 23l-64 110q-8 -6 -22 -16t-58.5 -36t-88.5 -45.5t-106 -35.5t-118 -16q-93 0 -154.5 45t-88 116.5t-30.5 170.5h500l23 143h-863zM129 778h862l23 144h-502q59 163 160.5 260.5 t230.5 97.5q108 0 230 -33l24 -205h105l61 324q-20 10 -54.5 24.5t-134.5 39t-190 24.5q-225 0 -398.5 -141.5t-258.5 -390.5h-135z" />
<glyph unicode="&#x2122;" horiz-adv-x="1949" d="M178 1178l43 256h692l-43 -256h-96v139h-149l-90 -543l127 -26l-17 -93h-416l17 93l135 26l90 543h-149l-48 -139h-96zM866 655l15 93l110 26l90 547l-102 14l14 92l281 7l129 -392l260 385l268 7l-14 -93l-107 -20l-90 -547l97 -26l-17 -93h-350l16 93l119 26l74 447 l-240 -344l-104 -13l-127 348l-72 -438l121 -26l-16 -93h-355z" />
<glyph unicode="&#x25fc;" horiz-adv-x="1085" d="M0 0v1085h1085v-1085h-1085z" />
</font>
</defs>
</svg>
