<?xml version="1.0" standalone="no"?>
<!DOCTYPE svg PUBLIC "-//W3C//DTD SVG 1.1//EN" "http://www.w3.org/Graphics/SVG/1.1/DTD/svg11.dtd" >
<svg xmlns="http://www.w3.org/2000/svg">
<metadata></metadata>
<defs>
<font id="bitterregular" horiz-adv-x="1259" >
<font-face units-per-em="2048" ascent="1577" descent="-471" />
<missing-glyph horiz-adv-x="471" />
<glyph unicode="&#xfb01;" horiz-adv-x="1413" d="M92 922v133l184 20v103q0 210 114.5 314.5t357.5 104.5q96 0 198 -17.5t156 -34.5l55 -17v-248h-164l-30 147q-92 17 -205 17q-277 0 -277 -225v-144l707 10v-921l153 -51v-113h-512v113l154 51v758h-502v-758l168 -51v-113h-547v113l174 51v758h-184z" />
<glyph unicode="&#xfb02;" horiz-adv-x="1386" d="M92 922v133l184 20v123q0 190 115 294.5t316 104.5q87 0 208 -5t199 -10l78 -5v-1413l184 -51v-113h-547v113l154 51v1259q-143 21 -256 21q-108 0 -177 -56.5t-69 -148.5v-164h271l-7 -153h-264v-758l168 -51v-113h-547v113l174 51v758h-184z" />
<glyph horiz-adv-x="2048" />
<glyph horiz-adv-x="2048" />
<glyph horiz-adv-x="682" />
<glyph unicode="&#xd;" horiz-adv-x="471" />
<glyph unicode=" "  horiz-adv-x="471" />
<glyph unicode="&#x09;" horiz-adv-x="471" />
<glyph unicode="&#xa0;" horiz-adv-x="471" />
<glyph unicode="!" horiz-adv-x="655" d="M195 123q0 67 38.5 105t94.5 38q62 0 97.5 -37.5t35.5 -105.5q0 -67 -38.5 -105t-94.5 -38q-62 0 -97.5 37.5t-35.5 105.5zM215 1536h236l-31 -1024l-174 -10z" />
<glyph unicode="&#x22;" horiz-adv-x="794" d="M133 1065v512h195l-41 -512h-154zM485 1065v512h197l-43 -512h-154z" />
<glyph unicode="#" horiz-adv-x="1413" d="M133 348v133h238l39 297h-226v133h244l43 318h164l-43 -318h297l43 318h164l-43 -318h227v-133h-246l-39 -297h234v-133h-252l-45 -348h-164l45 348h-297l-45 -348h-164l45 348h-219zM535 481h296l39 297h-297z" />
<glyph unicode="$" horiz-adv-x="1116" d="M133 51v328h143l41 -189q8 -4 24 -11t66.5 -18t104.5 -11q75 0 138.5 19t107 63t43.5 106q0 57 -36.5 99t-94.5 68t-128 49.5t-140 53.5t-128 69.5t-94.5 107t-36.5 157.5q0 155 97.5 244.5t251.5 111.5v238h153v-231q75 -5 157 -24t126 -35l45 -17l-10 -307h-123 l-52 184q-92 41 -194 41q-117 0 -181.5 -50.5t-64.5 -123.5q0 -45 22.5 -80.5t60.5 -60t87 -45.5t103.5 -40.5t109 -41t103.5 -50.5t87 -65.5t60.5 -90t22.5 -120.5q0 -162 -99 -259.5t-260 -127.5v-279h-153v267q-87 2 -176.5 19.5t-135.5 34.5z" />
<glyph unicode="%" horiz-adv-x="1669" d="M92 1085q0 173 94 271t244 98q144 0 231 -88.5t87 -259.5q0 -179 -93 -274t-245 -95q-146 0 -232 85.5t-86 262.5zM246 1096q0 -226 174 -226t174 226q0 105 -42.5 165t-131.5 60t-131.5 -60t-42.5 -165zM317 0l830 1434h184l-829 -1434h-185zM901 328q0 173 94 270.5 t244 97.5q144 0 230.5 -88.5t86.5 -259.5q0 -179 -92.5 -273.5t-244.5 -94.5q-146 0 -232 85.5t-86 262.5zM1055 338q0 -225 174 -225t174 225q0 105 -42.5 165t-131.5 60t-131.5 -60t-42.5 -165z" />
<glyph unicode="&#x26;" horiz-adv-x="1372" d="M143 399q0 69 28.5 133.5t69.5 107t81.5 75.5t69.5 48l28 15q-10 3 -26 8.5t-58 29.5t-74 55.5t-58 88.5t-26 125q0 185 126 277t351 92q80 0 177.5 -20.5t154.5 -41.5l57 -20l-10 -287h-131l-43 164q-82 31 -225 31q-120 0 -183 -55t-63 -150q0 -104 77.5 -169.5 t188.5 -65.5h635v-123l-164 -41v-246q0 -213 -134 -331.5t-367 -118.5q-244 0 -363 112.5t-119 306.5zM358 410q0 -127 76.5 -191.5t210.5 -64.5q132 0 204.5 68.5t72.5 197.5v256h-277q-118 0 -202.5 -76t-84.5 -190z" />
<glyph unicode="'" horiz-adv-x="419" d="M113 1065v512h194l-41 -512h-153z" />
<glyph unicode="(" horiz-adv-x="675" d="M152 573q0 196 39.5 366.5t111 318t189.5 319.5h184q-149 -226 -234.5 -488.5t-85.5 -504.5q0 -268 84.5 -556.5t233.5 -498.5h-182q-179 248 -259.5 493.5t-80.5 550.5z" />
<glyph unicode=")" horiz-adv-x="675" d="M-2 1577h184q118 -172 189.5 -319.5t111 -318t39.5 -366.5q0 -305 -80.5 -550.5t-259.5 -493.5h-182q149 210 233 498.5t84 556.5q0 243 -85.5 505t-233.5 488z" />
<glyph unicode="*" horiz-adv-x="825" d="M51 1198l49 143l248 -94l27 -65l-62 -35zM143 936l170 211l72 4l14 -70l-133 -231zM322 1501l149 4l-14 -260l-56 -45l-53 47zM399 1081l19 70l69 -8l172 -203l-118 -90zM428 1182l29 63l235 101l51 -144l-256 -59z" />
<glyph unicode="+" horiz-adv-x="1269" d="M102 461v164h447v460h174v-460h444v-164h-444v-461h-174v461h-447z" />
<glyph unicode="," horiz-adv-x="542" d="M82 -238q12 16 30 42t48 84.5t30 91.5q0 17 -23.5 63t-23.5 86q0 59 37 98t96 39q60 0 97 -35.5t37 -115.5q0 -85 -63.5 -198.5t-172.5 -231.5z" />
<glyph unicode="-" horiz-adv-x="768" d="M123 471v174h532v-174h-532z" />
<glyph unicode="." horiz-adv-x="532" d="M133 123q0 67 38.5 105t94.5 38q62 0 97.5 -37.5t35.5 -105.5q0 -67 -38.5 -105t-94.5 -38q-62 0 -97.5 37.5t-35.5 105.5z" />
<glyph unicode="/" horiz-adv-x="1036" d="M82 0l678 1434h215l-678 -1434h-215z" />
<glyph unicode="0" horiz-adv-x="1320" d="M143 707q0 747 543 747q116 0 203 -31t145.5 -88.5t95 -146.5t52.5 -199t16 -252q0 -757 -532 -757q-270 0 -396.5 185.5t-126.5 541.5zM369 717q0 -282 74 -422.5t233 -140.5q158 0 227.5 141t69.5 432q0 287 -66.5 420t-230.5 133q-165 0 -236 -136t-71 -427z" />
<glyph unicode="1" horiz-adv-x="1048" d="M41 1120l477 314h172v-1260h307v-174h-837v174h315v1024l-348 -225z" />
<glyph unicode="2" horiz-adv-x="1167" d="M92 0v174q118 106 191.5 173t157.5 147t132.5 133.5t97.5 114t73.5 108t39.5 97t15 97.5q0 108 -74 172t-203 64q-50 0 -104 -10t-82 -20l-29 -11l-20 -195h-164l-10 328q25 9 67.5 22.5t153.5 36.5t198 23q241 0 366.5 -91t125.5 -298q0 -99 -37 -195t-122 -206 t-198 -222.5t-288 -267.5h686v-174h-973z" />
<glyph unicode="3" horiz-adv-x="1126" d="M41 82l61 164q20 -10 54 -25.5t131 -41t184 -25.5q141 0 224 69t83 197q0 115 -91.5 180.5t-246.5 65.5h-153v163h164q142 0 224.5 63t82.5 183q0 93 -72 149t-194 56q-55 0 -111.5 -10t-85.5 -20l-29 -11l-20 -184h-164l-10 317q25 9 68 22.5t157 36.5t205 23 q106 0 190.5 -20.5t148 -62.5t98 -111.5t34.5 -163.5q0 -133 -67 -221t-199 -121q138 -28 217.5 -120t79.5 -204q0 -98 -33 -176.5t-87 -128.5t-126 -83.5t-145.5 -47.5t-151.5 -14q-74 0 -145 10.5t-118.5 25.5t-84.5 30t-55 26z" />
<glyph unicode="4" horiz-adv-x="1249" d="M41 492l655 972l236 -30v-922h235v-174h-235v-338h-211v338h-660zM266 512h455v676z" />
<glyph unicode="5" horiz-adv-x="1085" d="M41 82l61 164q18 -10 51 -25.5t127 -41t181 -25.5q124 0 210.5 72.5t86.5 203.5q0 135 -112 206t-308 71h-215l27 727h776l-6 -174h-578l-18 -390h65q276 0 435 -117.5t159 -312.5q0 -89 -29.5 -165.5t-79.5 -129.5t-116.5 -91t-139 -56t-147.5 -18q-74 0 -146 10.5 t-121 25.5t-87.5 30t-56.5 26z" />
<glyph unicode="6" horiz-adv-x="1228" d="M123 604q0 187 47 341t138 268t234.5 177.5t327.5 63.5q45 0 83.5 -5t54.5 -10l16 -5l-10 -164q-62 10 -154 10q-77 0 -144 -17t-115 -46t-87.5 -67t-65 -79.5t-45 -83t-29.5 -79.5t-16.5 -67t-7.5 -46l-2 -17q6 4 17 11t46.5 25t73.5 31.5t96 24.5t115 11q120 0 219 -49 t160.5 -148.5t61.5 -232.5q0 -139 -67.5 -248t-179 -166t-245.5 -57q-131 0 -232 47t-164 131.5t-94.5 197t-31.5 248.5zM338 553q0 -104 24.5 -183t68 -125t97 -68.5t117.5 -22.5q125 0 201 73.5t76 202.5q0 137 -74 207t-213 70q-73 0 -147 -23.5t-112 -46.5l-38 -23v-61z " />
<glyph unicode="7" horiz-adv-x="1028" d="M10 1055v379h983v-154l-547 -1280h-235l543 1249h-549l-41 -194h-154z" />
<glyph unicode="8" horiz-adv-x="1208" d="M102 389q0 64 25 122.5t57.5 96t78 71.5t71 47.5t51.5 25.5q-115 57 -178.5 130.5t-63.5 192.5q0 187 131.5 283t360.5 96q217 0 333.5 -101t116.5 -268q0 -58 -20.5 -109.5t-49 -85.5t-67.5 -62t-68.5 -42.5t-58.5 -25.5q63 -26 109.5 -54.5t89 -70t64.5 -98.5t22 -127 q0 -189 -140.5 -309.5t-381.5 -120.5q-231 0 -356.5 113t-125.5 296zM328 399q0 -115 72.5 -179t203.5 -64t204 64t73 179q0 32 -10 61t-23 50t-41 43t-48 35.5t-61.5 32.5t-63.5 28.5t-71 28.5q-22 -11 -30.5 -14.5t-38.5 -21t-46.5 -30.5t-42.5 -37.5t-40.5 -48.5 t-25.5 -57.5t-11 -69.5zM358 1075q0 -43 17.5 -78.5t41.5 -59.5t67.5 -47.5t77 -37t89.5 -33.5q24 9 49 21.5t57 35.5t56 49.5t40.5 66t16.5 83.5q0 94 -67.5 149.5t-188.5 55.5t-188.5 -55.5t-67.5 -149.5z" />
<glyph unicode="9" horiz-adv-x="1228" d="M92 983q0 108 39.5 198t107 149t156.5 91.5t189 32.5q131 0 232 -47t164 -131.5t94.5 -197.5t31.5 -249q0 -187 -45.5 -340.5t-134.5 -268t-231 -177.5t-326 -63q-45 0 -86 5t-59 10l-19 5l10 164q72 -10 164 -10q79 0 146.5 17.5t115.5 47t87 68t63 81t42.5 85t27 81 t13.5 68t6 46.5l1 18q-6 -4 -17 -11t-47 -25t-74 -31.5t-96 -24.5t-115 -11q-121 0 -219 46.5t-159.5 143.5t-61.5 230zM307 1004q0 -267 287 -267q73 0 147 23t112 46l38 23v62q0 195 -87 292t-220 97q-125 0 -201 -73.5t-76 -202.5z" />
<glyph unicode=":" horiz-adv-x="573" d="M154 123q0 67 38 105t95 38q62 0 97.5 -37.5t35.5 -105.5q0 -67 -38 -105t-95 -38q-62 0 -97.5 37.5t-35.5 105.5zM154 788q0 67 38.5 105.5t94.5 38.5q62 0 97.5 -38t35.5 -106q0 -66 -38 -104.5t-95 -38.5q-62 0 -97.5 37.5t-35.5 105.5z" />
<glyph unicode=";" horiz-adv-x="573" d="M92 -238l92 -77q109 118 172.5 231.5t63.5 198.5q0 151 -133 151q-59 0 -96 -39t-37 -98q0 -40 23.5 -86t23.5 -63q0 -33 -27.5 -87.5t-54.5 -92.5zM152 788q0 67 38.5 105.5t94.5 38.5q62 0 97.5 -38t35.5 -106q0 -66 -38 -104.5t-95 -38.5q-62 0 -97.5 37.5 t-35.5 105.5z" />
<glyph unicode="&#x3c;" horiz-adv-x="1249" d="M102 471v143l1045 471v-174l-819 -368l819 -379v-174z" />
<glyph unicode="=" horiz-adv-x="1228" d="M113 276v164h1003v-164h-1003zM113 676v164h1003v-164h-1003z" />
<glyph unicode="&#x3e;" horiz-adv-x="1249" d="M102 -10v174l820 379l-820 368v174l1045 -471v-143z" />
<glyph unicode="?" horiz-adv-x="985" d="M174 1479q135 47 258 47q68 0 126.5 -9t114 -32t94 -58.5t62 -91.5t23.5 -127q0 -72 -28 -138.5t-70 -114t-91.5 -95.5t-91.5 -85.5t-70 -82t-28 -86.5l4 -127l-184 -12q-19 140 -19 201q0 49 37.5 99.5t90.5 96t106.5 93.5t91 108t37.5 123q0 84 -53.5 124t-161.5 40 q-45 0 -99 -7t-85 -13l-31 -7zM268 123q0 67 38 105t95 38q62 0 98 -37.5t36 -105.5q0 -66 -38.5 -104.5t-95.5 -38.5q-62 0 -97.5 37.5t-35.5 105.5z" />
<glyph unicode="@" horiz-adv-x="1679" d="M133 707q0 338 199 542.5t528 204.5q321 0 508.5 -193t187.5 -524q0 -194 -93 -307t-253 -113q-52 0 -94 14t-65 34t-38.5 40t-20.5 34l-5 14l-13.5 -13.5t-35 -30.5t-53.5 -39t-65.5 -30.5t-74.5 -13.5q-111 0 -169 58.5t-58 170.5q0 115 81.5 171t250.5 56h111v99 q0 112 -140 112q-35 0 -87 -10.5t-87 -20.5l-35 -10l-37 117q17 7 46.5 17.5t105.5 28.5t135 18q133 0 197.5 -58t64.5 -178v-367q0 -42 26 -66t71 -24q80 0 126 77t46 210q0 264 -147 418.5t-396 154.5q-257 0 -405 -156t-148 -427q0 -277 134.5 -430.5t377.5 -153.5 q59 0 120.5 12.5t93.5 25.5l32 13l82 -123q-5 -3 -14.5 -8.5t-43 -19.5t-70 -24.5t-93.5 -19.5t-117 -9q-322 0 -494 187.5t-172 539.5zM678 555q0 -43 28.5 -68.5t77.5 -25.5q43 0 87 23t67 46l23 23v119h-99q-100 0 -142 -27t-42 -90z" />
<glyph unicode="A" horiz-adv-x="1484" d="M10 0v123l168 39l467 1261l205 11l455 -1272l170 -39v-123h-594v123l190 39l-78 227h-532l-80 -227l192 -39v-123h-563zM516 553h422l-207 616z" />
<glyph unicode="B" horiz-adv-x="1290" d="M82 0v123l174 41v1106l-174 41v112l379 11h235q201 0 321 -90.5t120 -268.5q0 -265 -267 -332q159 -36 238.5 -122t79.5 -211q0 -211 -131.5 -310.5t-390.5 -99.5h-584zM461 164h215q146 0 221.5 59.5t75.5 175.5q0 147 -90 207t-269 60h-153v-502zM461 819h153 q144 0 226 58.5t82 177.5q0 103 -66 159t-170 56h-225v-451z" />
<glyph unicode="C" horiz-adv-x="1361" d="M123 686q0 353 185.5 560.5t500.5 207.5q100 0 215 -25.5t180 -50.5l66 -26l-10 -348h-154l-55 235q-109 41 -263 41q-208 0 -319 -150.5t-111 -433.5q0 -266 119.5 -399t321.5 -133q60 0 124.5 17t113 41t88.5 48t61 41l22 17l82 -133q-8 -9 -24 -23.5t-68 -51.5 t-107.5 -65.5t-141 -51.5t-171.5 -23q-311 0 -483 182t-172 524z" />
<glyph unicode="D" horiz-adv-x="1495" d="M92 0v123l174 41v1106l-174 41v112l389 11h256q303 0 474 -181t171 -516q0 -338 -183.5 -537.5t-491.5 -199.5h-615zM481 164h236q200 0 315 140.5t115 422.5q0 276 -110.5 409.5t-309.5 133.5h-246v-1106z" />
<glyph unicode="E" d="M102 0v123l174 41v1106l-174 41v112l390 11h624v-349h-133l-51 185h-440v-441h471v-163h-471v-502h471l41 205h133v-369h-1035z" />
<glyph unicode="F" horiz-adv-x="1167" d="M82 0v123l174 41v1106l-174 41v112l389 11h625v-338h-133l-52 174h-440v-461h471v-164h-471v-481l205 -41v-123h-594z" />
<glyph unicode="G" horiz-adv-x="1536" d="M123 686q0 353 185.5 560.5t500.5 207.5q100 0 215 -25.5t180 -50.5l66 -26l-10 -338h-134l-61 225q-123 41 -277 41q-208 0 -319 -150.5t-111 -433.5q0 -268 122 -405t329 -137q64 0 135.5 13t111.5 25l40 13v336l-174 41v112l532 11v-123l-154 -41v-439 q-9 -5 -25.5 -13t-70.5 -29t-111 -37.5t-143.5 -29.5t-171.5 -13q-311 0 -483 182t-172 524z" />
<glyph unicode="H" horiz-adv-x="1628" d="M82 0v123l174 41v1106l-174 41v112l584 11v-123l-195 -41v-451h686v451l-194 41v112l583 11v-123l-174 -41v-1106l174 -41v-123h-583v123l194 41v491h-686v-491l195 -41v-123h-584z" />
<glyph unicode="I" horiz-adv-x="747" d="M92 0v123l174 41v1106l-174 41v112l563 11v-123l-174 -41v-1106l174 -41v-123h-563z" />
<glyph unicode="J" horiz-adv-x="735" d="M-41 -297l18 154h103q97 0 140.5 49t43.5 145v1219l-174 41v112l563 11v-123l-174 -41v-1178q0 -186 -103 -292.5t-286 -106.5q-23 0 -55.5 2.5t-54.5 4.5z" />
<glyph unicode="K" horiz-adv-x="1413" d="M92 0v123l174 41v1106l-174 41v112l584 11v-123l-195 -41v-451h189l354 604l338 11v-123l-203 -41l-311 -518l422 -588l174 -41v-123h-584v123l174 41l-352 491h-201v-491l195 -41v-123h-584z" />
<glyph unicode="L" horiz-adv-x="1085" d="M72 0v123l174 41v1106l-174 41v112l563 11v-123l-174 -41v-1106h420l41 235h143v-399h-993z" />
<glyph unicode="M" horiz-adv-x="1812" d="M82 0v123l174 41v1106l-174 41v112l461 11l370 -820l387 809l431 11v-123l-175 -41v-1106l175 -41v-123h-574v123l195 41v1024l-62 -154l-317 -645l-164 -10l-317 665l-52 144v-1024l195 -41v-123h-553z" />
<glyph unicode="N" horiz-adv-x="1617" d="M82 0v123l174 41v1106l-174 41v112l430 11l676 -1145v981l-174 41v112l532 11v-123l-174 -41v-1270h-256l-676 1128v-964l195 -41v-123h-553z" />
<glyph unicode="O" horiz-adv-x="1546" d="M123 707q0 340 179.5 543.5t485.5 203.5q298 0 466.5 -192.5t168.5 -524.5q0 -167 -49.5 -308t-138 -240t-214 -154t-273.5 -55q-300 0 -462.5 187.5t-162.5 539.5zM358 717q0 -278 100.5 -420.5t299.5 -142.5q204 0 317 144t113 429q0 275 -104.5 414t-305.5 139 q-204 0 -312 -138.5t-108 -424.5z" />
<glyph unicode="P" horiz-adv-x="1208" d="M82 0v123l174 41v1106l-174 41v112l389 11h215q227 0 349 -112.5t122 -307.5q0 -235 -144.5 -358.5t-408.5 -123.5h-133v-368l174 -41v-123h-563zM471 696h133q167 0 252.5 74t85.5 213q0 127 -69.5 207t-196.5 80h-205v-574z" />
<glyph unicode="Q" horiz-adv-x="1515" d="M123 707q0 337 189 542t497 205q304 0 469.5 -191.5t165.5 -525.5q0 -276 -125 -469t-342 -258l221 -133q140 -82 215 -82q32 0 80.5 18t81.5 36l33 18l82 -123q-23 -14 -60 -34.5t-122.5 -54.5t-135.5 -34q-38 0 -92 21.5t-82 37.5t-92 54l-408 250q-277 20 -426 206 t-149 517zM348 717q0 -272 108.5 -417.5t321.5 -145.5q216 0 328.5 145t112.5 428q0 553 -420 553q-218 0 -334.5 -141.5t-116.5 -421.5z" />
<glyph unicode="R" horiz-adv-x="1331" d="M82 0v123l174 41v1106l-174 41v112l389 11h225q216 0 338.5 -98.5t122.5 -270.5q0 -299 -266 -399q49 -43 123 -185l162 -325l145 -33v-123h-307l-174 379q-72 154 -124 200t-153 46h-92v-461l174 -41v-123h-563zM471 778h154q151 0 234 67t83 189q0 103 -72 169.5 t-184 66.5h-215v-492z" />
<glyph unicode="S" horiz-adv-x="1222" d="M143 61v359h164l41 -215q10 -6 29 -14.5t78 -22.5t118 -14q78 0 148 23.5t118 75t48 120.5q0 50 -25.5 89.5t-68 66.5t-98 50t-117 44t-123 45t-117 57.5t-98 75.5t-68 105t-25.5 141q0 104 39.5 184t108 127.5t154 71.5t184.5 24q87 0 195 -20.5t172 -41.5l65 -20 l-10 -348h-133l-70 219q-104 37 -217 37q-131 0 -202 -58t-71 -141q0 -50 25 -89t68 -66t98.5 -50t116.5 -44t122 -44t116.5 -55t98.5 -72t68 -99.5t25 -133.5q0 -112 -43 -199t-117.5 -140.5t-169.5 -81t-205 -27.5q-96 0 -201.5 20t-163.5 40z" />
<glyph unicode="T" horiz-adv-x="1157" d="M20 1065v369h1117v-369h-133l-52 205h-266v-1106l205 -41v-123h-625v123l205 41v1106h-266l-51 -205h-134z" />
<glyph unicode="U" horiz-adv-x="1617" d="M82 1311v112l584 11v-123l-195 -41v-717q0 -153 36.5 -240.5t108 -123t193.5 -35.5q191 0 264.5 95.5t73.5 334.5v686l-195 41v112l584 11v-123l-174 -41v-686q0 -148 -28 -255.5t-92 -188t-174.5 -120.5t-268.5 -40q-292 0 -417.5 140t-125.5 433v717z" />
<glyph unicode="V" horiz-adv-x="1433" d="M10 1311v112l574 11v-123l-187 -39l322 -996l342 994l-191 41v112l553 11v-123l-159 -41l-455 -1270h-205l-436 1270z" />
<glyph unicode="W" horiz-adv-x="2119" d="M10 1311v112l574 11v-123l-178 -41l219 -928l338 1081l194 11l332 -1115l254 951l-187 41v112l553 11v-123l-161 -41l-361 -1270h-225l-246 942l-59 221l-64 -231l-276 -932h-205l-342 1270z" />
<glyph unicode="X" horiz-adv-x="1433" d="M20 0v123l134 31l430 573l-379 543l-154 41v112l543 11v-123l-133 -41l266 -389l266 389l-143 41v112l543 11v-123l-185 -41l-368 -533l399 -573l174 -41v-123h-553v123l123 31l-287 419l-307 -409l174 -41v-123h-543z" />
<glyph unicode="Y" horiz-adv-x="1320" d="M20 1311v112l512 11v-123l-139 -41l273 -574l301 574l-158 41v112l491 11v-123l-126 -37l-406 -739v-371l174 -41v-123h-563v123l174 41v366l-395 742z" />
<glyph unicode="Z" d="M82 0v143l819 1127h-573l-52 -205h-133v369h1035v-144l-820 -1126h635l41 205h133v-369h-1085z" />
<glyph unicode="[" horiz-adv-x="706" d="M184 -471v2048l441 -10v-133l-246 -23v-1716l246 -23v-133z" />
<glyph unicode="\" horiz-adv-x="1036" d="M61 1434h215l678 -1434h-215z" />
<glyph unicode="]" horiz-adv-x="706" d="M82 -328l246 23v1716l-246 23v133l440 10v-2048l-440 10v133z" />
<glyph unicode="^" horiz-adv-x="1167" d="M123 655l389 779h143l389 -779h-178l-288 574l-281 -574h-174z" />
<glyph unicode="_" horiz-adv-x="1024" d="M-4 -164h1032v-143h-1032v143z" />
<glyph unicode="`" horiz-adv-x="501" d="M0 1485l102 153l400 -317l-72 -102z" />
<glyph unicode="a" horiz-adv-x="1157" d="M92 287q0 169 121.5 243t349.5 74h164v164q0 91 -50.5 137.5t-144.5 46.5q-55 0 -106.5 -7.5t-75.5 -14.5l-24 -8l-29 -154h-133l-10 256q25 9 67.5 22.5t148.5 36.5t183 23q187 0 283 -74t96 -244v-624l164 -41v-113l-318 -10l-43 143q-66 -66 -153 -114.5t-183 -48.5 q-146 0 -226.5 80.5t-80.5 226.5zM301 297q0 -69 40.5 -111.5t109.5 -42.5q43 0 87.5 17t77 41t58.5 48t40 41l13 17v164h-143q-153 0 -218 -40.5t-65 -133.5z" />
<glyph unicode="b" horiz-adv-x="1208" d="M10 1454v113l369 10v-590q153 119 307 119q215 0 322.5 -142.5t107.5 -390.5q0 -176 -63 -308.5t-191.5 -208.5t-308.5 -76q-100 0 -194.5 12.5t-139.5 25.5l-45 13v1382zM379 164q53 -21 205 -21q86 0 149.5 32t99 89.5t52 129t16.5 159.5q0 179 -62 284t-194 105 q-52 0 -98 -13.5t-75.5 -33t-51.5 -39.5t-32 -34l-9 -13v-645z" />
<glyph unicode="c" horiz-adv-x="1044" d="M82 543q0 249 144.5 406t387.5 157q82 0 169 -20.5t133 -41.5l47 -20l-11 -276h-133l-31 174q-82 20 -184 20q-149 0 -228 -95t-79 -284q0 -204 84 -312t233 -108q55 0 107.5 12.5t89 30.5t65 36.5t42.5 31.5l14 12l72 -123q-8 -7 -21.5 -18t-57.5 -39t-89.5 -49.5 t-112 -39t-129.5 -17.5q-250 0 -381 149t-131 414z" />
<glyph unicode="d" d="M92 512q0 132 33.5 240t99 187.5t170 123t240.5 43.5q97 0 194 -33v340l-174 41v113l379 10v-1413l174 -41v-113l-348 -10l-16 117q-137 -137 -322 -137q-215 0 -322.5 142.5t-107.5 389.5zM307 532q0 -179 62 -284t194 -105q49 0 94 16t75 38.5t53 45t33 38.5l11 16v604 q-8 5 -24 11.5t-71.5 18t-119.5 11.5q-307 0 -307 -410z" />
<glyph unicode="e" horiz-adv-x="1105" d="M82 532q0 163 63 293.5t178 205.5t261 75q430 0 430 -481q0 -23 -2.5 -50t-5.5 -45l-2 -18h-707q0 -168 82 -268.5t215 -100.5q91 0 177 28.5t127 56.5l40 28l72 -106q-8 -7 -22 -18.5t-60.5 -40.5t-94.5 -51.5t-119.5 -41t-140.5 -18.5q-241 0 -366 146.5t-125 405.5z M305 666h492q0 126 -54 203t-170 77q-118 0 -188.5 -79t-79.5 -201z" />
<glyph unicode="f" horiz-adv-x="849" d="M92 922v133l184 20v123q0 187 98.5 293t280.5 106q55 0 106.5 -7.5t86.5 -17.5t62 -20.5t40 -17.5l13 -8v-256h-144l-31 164q-50 10 -122 10q-102 0 -143.5 -53t-41.5 -152v-164h271l-7 -153h-264v-758l205 -51v-113h-584v113l174 51v758h-184z" />
<glyph unicode="g" horiz-adv-x="1198" d="M92 -215q0 52 22 97t54 73t63.5 48.5t53.5 28.5l22 9q-5 0 -13.5 1.5t-29.5 9t-37 19t-29.5 34.5t-13.5 53t26.5 88t53.5 100l27 43q-6 3 -17 9.5t-38 32t-48 58t-38 91t-17 127.5q0 194 122.5 296.5t328.5 102.5q59 0 110 -10t72 -20l22 -9l359 8v-112l-199 -29 q6 -8 15.5 -24t25 -70t15.5 -113q0 -200 -121.5 -299.5t-329.5 -99.5q-41 0 -79.5 4.5t-56.5 9.5l-18 4l-10 -192h318q200 0 304.5 -75.5t104.5 -221.5q0 -173 -135 -271t-397 -98q-89 0 -161.5 9t-135 30.5t-105 55.5t-66.5 85t-24 117zM297 -184q0 -52 21 -87t65 -53.5 t98.5 -26t132.5 -7.5q155 0 231.5 47.5t76.5 146.5q0 94 -66.5 129t-200.5 35h-225q-5 -2 -14 -7t-32 -22.5t-40.5 -37t-32 -51.5t-14.5 -66zM338 717q0 -112 57 -179t168 -67q124 0 180 58t56 188q0 118 -56.5 182t-169.5 64q-122 0 -178.5 -61t-56.5 -185z" />
<glyph unicode="h" horiz-adv-x="1331" d="M51 0v113l174 51v1249l-174 41v113l379 10v-619q65 55 161 101.5t197 46.5q164 0 246 -97.5t82 -271.5v-573l154 -51v-113h-492v113l133 49v555q0 111 -40.5 163t-137.5 52q-49 0 -98 -17t-84.5 -41t-63.5 -48t-43 -41l-14 -17v-604l133 -51v-113h-512z" />
<glyph unicode="i" horiz-adv-x="686" d="M82 0v113l174 51v758l-174 41v112l379 10v-921l153 -51v-113h-532zM215 1423q0 67 38.5 105.5t94.5 38.5q133 0 133 -144q0 -65 -41.5 -104t-91.5 -39q-62 0 -97.5 37.5t-35.5 105.5z" />
<glyph unicode="j" horiz-adv-x="591" d="M-82 -481l19 143h102q101 0 142.5 52.5t41.5 152.5v1055l-174 41v112l379 10v-1177q0 -187 -98.5 -293.5t-280.5 -106.5q-23 0 -55.5 3t-53.5 5zM172 1423q0 67 38.5 105.5t94.5 38.5q133 0 133 -144q0 -65 -41.5 -104t-91.5 -39q-62 0 -97.5 37.5t-35.5 105.5z" />
<glyph unicode="k" horiz-adv-x="1187" d="M51 0v113l174 51v1249l-174 41v113l379 10v-901h174l154 258l-92 29v112l450 10v-122l-145 -25h-2l-211 -313l264 -461h2l154 -51v-113h-277l-293 522h-178v-358l133 -51v-113h-512z" />
<glyph unicode="l" horiz-adv-x="628" d="M51 0v113l174 51v1249l-174 41v113l383 10v-1413l184 -51v-113h-567z" />
<glyph unicode="m" horiz-adv-x="2007" d="M82 0v113l174 51v758l-174 41v112l338 10l18 -145q22 21 55.5 45.5t83 53.5t111.5 48t121 19q207 0 285 -176q17 17 46.5 40t81.5 57t120 56.5t133 22.5q163 0 240 -96.5t77 -272.5v-573l154 -51v-113h-492v113l133 51v553q0 112 -38.5 163.5t-135.5 51.5 q-49 0 -96.5 -17t-80.5 -41t-59 -48t-39 -41l-12 -17v-604l134 -51v-113h-472v113l134 51v553q0 112 -38.5 163.5t-135.5 51.5q-49 0 -96.5 -17t-80.5 -41t-59 -48t-38 -41l-13 -17v-604l133 -51v-113h-512z" />
<glyph unicode="n" horiz-adv-x="1361" d="M82 0v113l174 51v758l-174 41v112l338 10l18 -145q24 21 58 45t85.5 53.5t115 48.5t122.5 19q164 0 246 -97.5t82 -271.5v-573l153 -51v-113h-491v113l133 51v553q0 110 -43 162.5t-141 52.5q-49 0 -97.5 -17t-83 -41t-62 -48t-41.5 -41l-13 -17v-604l133 -51v-113h-512z " />
<glyph unicode="o" horiz-adv-x="1167" d="M82 532q0 259 145 416.5t377 157.5q227 0 354 -147t127 -396q0 -261 -141 -422t-371 -161q-234 0 -362.5 140t-128.5 412zM297 543q0 -400 287 -400q150 0 218 102.5t68 307.5q0 389 -276 389q-152 0 -224.5 -99t-72.5 -300z" />
<glyph unicode="p" d="M51 963v112l348 10l17 -114q144 135 311 135q216 0 328 -143.5t112 -389.5q0 -132 -33.5 -239.5t-100.5 -187t-173.5 -123t-245.5 -43.5q-88 0 -184 28v-325l215 -41v-113h-584v113l164 41v1239zM430 184q7 -5 21.5 -11.5t70 -18t123.5 -11.5q307 0 307 410 q0 177 -66.5 283t-199.5 106q-52 0 -97 -14.5t-73 -36t-48.5 -42.5t-29.5 -35l-8 -15v-615z" />
<glyph unicode="q" horiz-adv-x="1187" d="M92 512q0 176 63 308.5t191.5 209t308.5 76.5q100 0 194.5 -10t139.5 -20l45 -11v-1382l164 -41v-113h-573v113l204 41v415q-151 -118 -307 -118q-430 0 -430 532zM307 532q0 -179 62 -284t194 -105q52 0 98 13.5t75.5 33t51.5 39.5t32 33l9 14v646q-61 20 -204 20 q-86 0 -149.5 -32t-99.5 -89.5t-52.5 -129t-16.5 -159.5z" />
<glyph unicode="r" horiz-adv-x="952" d="M82 0v113l174 51v758l-174 41v112l338 10l18 -149q57 63 138 116.5t172 53.5q45 0 91 -8t69 -16l24 -7l-10 -297h-134l-30 154q-175 0 -297 -160v-608l205 -51v-113h-584z" />
<glyph unicode="s" horiz-adv-x="960" d="M92 786q0 154 105 237t270 83q72 0 159.5 -15.5t139.5 -30.5l51 -16l-6 -276h-133l-33 160q-64 24 -166 24q-182 0 -182 -137q0 -44 31.5 -77t82 -54t111 -41t121.5 -44.5t111.5 -57t82 -86.5t31.5 -125q0 -114 -62 -194.5t-162 -118t-226 -37.5q-84 0 -165 11t-120 23 l-39 11v303h144l22 -176q61 -19 172 -19q232 0 232 162q0 44 -31.5 76.5t-82 52.5t-111.5 39t-122 43.5t-111.5 57.5t-82 89.5t-31.5 132.5z" />
<glyph unicode="t" horiz-adv-x="808" d="M41 922v133l205 20v258l205 41v-299h297v-153h-297v-658q0 -125 102 -125q67 0 160 51l55 -108q-138 -102 -287 -102q-104 0 -169.5 68.5t-65.5 227.5v646h-205z" />
<glyph unicode="u" horiz-adv-x="1331" d="M41 963v112l379 10v-718q0 -109 43 -161t141 -52q49 0 97.5 16.5t83 40t62 47.5t41.5 40l13 17v607l-174 41v112l379 10v-921l174 -41v-113l-338 -10l-20 143q-35 -30 -83 -62.5t-134 -66.5t-162 -34q-165 0 -246.5 96t-81.5 270v576z" />
<glyph unicode="v" horiz-adv-x="1144" d="M10 963v112l461 10v-122l-143 -21l243 -758l246 748l-141 31v112l459 10v-122l-113 -21l-348 -942h-225l-336 932z" />
<glyph unicode="w" horiz-adv-x="1699" d="M10 963v112l461 10v-122l-154 -21l175 -758l268 891l194 31l254 -922l164 748l-143 31v112l461 10v-122l-119 -21l-250 -942h-236l-194 635l-49 196l-43 -196l-195 -635h-235l-256 932z" />
<glyph unicode="x" horiz-adv-x="1157" d="M10 0v113l180 47l261 383l-263 391l-157 29v112l467 10v-122l-72 -13l158 -264l245 389l297 10v-122l-174 -31l-256 -379l262 -393l189 -47v-113h-500v113l82 24l-168 271l-254 -408h-297z" />
<glyph unicode="y" horiz-adv-x="1181" d="M20 963v112l482 10v-122l-144 -21l246 -717l225 707l-143 31v112l485 10v-122l-133 -21l-290 -811q-81 -212 -109 -273q-102 -219 -238 -297q-91 -53 -206 -53q-23 0 -56 3l-55 5l-21 3l19 143h102q100 0 175.5 84.5t150.5 249.5l-367 936z" />
<glyph unicode="z" horiz-adv-x="993" d="M92 0v154l598 778h-385l-29 -154h-143v307h789v-153l-600 -778h417l29 163h143v-317h-819z" />
<glyph unicode="{" horiz-adv-x="757" d="M61 532v144q108 0 151.5 55.5t43.5 157.5v350q0 190 81 269t267 79h92v-133q-146 0 -199 -46t-53 -169v-350q0 -104 -48 -177t-142 -108q94 -35 142 -108t48 -177v-432q0 -123 53 -169t199 -46v-133h-92q-186 0 -267 79t-81 269v432q0 102 -43.5 157.5t-151.5 55.5z" />
<glyph unicode="|" horiz-adv-x="573" d="M205 -471v2017h164v-2017h-164z" />
<glyph unicode="}" horiz-adv-x="768" d="M82 -328q146 0 199 46t53 169v432q0 104 48 177t142 108q-94 35 -142 108t-48 177v350q0 123 -53 169t-199 46v133h92q186 0 267 -79t81 -269v-350q0 -102 43.5 -157.5t151.5 -55.5v-144q-108 0 -151.5 -55.5t-43.5 -157.5v-432q0 -190 -81 -269t-267 -79h-92v133z" />
<glyph unicode="~" horiz-adv-x="1282" d="M123 502q4 8 11.5 22t35.5 49.5t60.5 62.5t87 49t114.5 22q64 0 126 -22.5t104 -49.5t99 -49.5t111 -22.5q32 0 63.5 12.5t53.5 30.5t40 36.5t27 31.5l9 12l94 -74q-5 -9 -13.5 -23t-37.5 -51t-61 -65t-82.5 -51t-102.5 -23q-63 0 -129 22.5t-112.5 49.5t-106.5 49.5 t-113 22.5q-32 0 -62.5 -12t-51.5 -28.5t-37.5 -33.5t-24.5 -29l-8 -12z" />
<glyph unicode="&#xa1;" horiz-adv-x="645" d="M184 983q0 67 38 105t95 38q62 0 98 -37.5t36 -105.5q0 -66 -38.5 -104.5t-95.5 -38.5q-62 0 -97.5 37.5t-35.5 105.5zM205 -430l31 1024l174 10l30 -1034h-235z" />
<glyph unicode="&#xa2;" horiz-adv-x="1044" d="M92 737q0 195 103.5 331t296.5 169v197h153v-189q74 -4 150.5 -26t116.5 -42l40 -20l-10 -266h-133l-31 174q-72 20 -174 20q-154 0 -225.5 -79t-71.5 -248q0 -369 307 -369q49 0 96.5 10.5t80.5 25.5t59 30.5t38 26.5l13 10l80 -113q-6 -5 -17.5 -14t-48 -32.5 t-74 -42.5t-91.5 -38t-105 -25v-227h-153v231q-197 29 -298.5 162.5t-101.5 343.5z" />
<glyph unicode="&#xa3;" horiz-adv-x="1280" d="M123 0v123l113 31q67 18 89.5 74.5t22.5 191.5q0 37 -14 266h-211v139l201 23q-7 115 -7 196q0 192 101 301t309 109q109 0 214 -15t155 -31l51 -15v-287h-133l-31 170q-123 14 -246 14q-215 0 -215 -205q0 -131 8 -235h340v-164h-329q12 -184 12 -246q0 -57 -9.5 -106.5 t-23 -79.5t-27 -51.5t-23.5 -30.5l-9 -8h520l43 215h133v-379h-1034z" />
<glyph unicode="&#xa4;" horiz-adv-x="1183" d="M102 225l160 160q-55 91 -55 219q0 126 63 223l-168 168l101 107l170 -168q103 70 233 70q123 0 215 -60l160 158l100 -107l-155 -155q59 -95 59 -226q0 -127 -65 -227l161 -162l-100 -106l-166 164q-100 -68 -229 -68q-132 0 -224 61l-159 -157zM381 610 q0 -119 54 -185.5t161 -66.5t161 66.5t54 185.5t-53 184.5t-162 65.5q-108 0 -161.5 -65.5t-53.5 -184.5z" />
<glyph unicode="&#xa5;" horiz-adv-x="1320" d="M20 1311v112l512 11v-123l-139 -41l273 -553l301 553l-158 41v112l491 11v-123l-126 -37l-306 -537h252v-143h-921v143h254l-295 535zM199 317v144h921v-144h-352v-153l174 -41v-123h-563v123l174 41v153h-354z" />
<glyph unicode="&#xa6;" horiz-adv-x="614" d="M215 297h164v-840h-164v840zM215 748v819h164v-819h-164z" />
<glyph unicode="&#xa7;" horiz-adv-x="1116" d="M154 727q0 112 43.5 186t103.5 115q-55 83 -55 191q0 168 109.5 273t281.5 105q77 0 151.5 -15.5t109.5 -30.5l36 -15l-10 -328h-123l-49 215q-60 11 -111 11q-92 0 -146.5 -53t-54.5 -132q0 -54 30.5 -102t79.5 -86.5t107.5 -76.5t117.5 -80.5t108 -89.5t79.5 -111.5 t30.5 -139.5q0 -112 -43.5 -186t-103.5 -115q57 -86 57 -190q0 -168 -108.5 -273.5t-280.5 -105.5q-77 0 -151.5 15.5t-110.5 30.5l-35 15l10 328h131l43 -215q45 -10 117 -10q86 0 138.5 53t52.5 131q0 54 -30.5 102t-79.5 86.5t-108 76.5t-118.5 80.5t-108.5 89.5 t-79.5 111.5t-30.5 139.5zM348 758q0 -49 24.5 -92.5t69.5 -80.5t91.5 -67.5t108.5 -71.5t103 -75q54 59 54 161q0 49 -24 92t-69 80.5t-91.5 68t-108.5 72t-103 75.5q-55 -55 -55 -162z" />
<glyph unicode="&#xa8;" horiz-adv-x="1054" d="M205 1434q0 57 32 89.5t80 32.5q53 0 83 -32t30 -90q0 -57 -32.5 -90t-80.5 -33q-53 0 -82.5 32.5t-29.5 90.5zM625 1434q0 57 32 89.5t80 32.5q53 0 83 -32t30 -90q0 -57 -32.5 -90t-80.5 -33q-53 0 -82.5 32.5t-29.5 90.5z" />
<glyph unicode="&#xa9;" horiz-adv-x="1679" d="M92 707q0 159 57 298t155.5 237.5t237.5 155t298 56.5q213 0 383.5 -91.5t267 -257.5t96.5 -378q0 -158 -60 -297.5t-162.5 -238t-244.5 -155t-301 -56.5t-294.5 53.5t-230.5 148.5t-148.5 230.5t-53.5 294.5zM256 717q0 -263 157 -426.5t416 -163.5q261 0 427.5 164.5 t166.5 425.5t-166.5 425.5t-427.5 164.5q-259 0 -416 -163.5t-157 -426.5zM471 702q0 194 102.5 310t280.5 116q57 0 122 -16t102 -32l36 -15l-4 -217h-115l-28 139q-57 17 -127 17q-98 0 -146.5 -75t-48.5 -216q0 -133 54.5 -197.5t150.5 -64.5q49 0 104 22.5t85 44.5 l30 23l55 -95l-14 -14t-38.5 -31t-61 -39t-78 -31t-92.5 -14q-173 0 -271 98.5t-98 286.5z" />
<glyph unicode="&#xaa;" horiz-adv-x="958" d="M102 877q0 121 85 174t247 53h111v102q0 50 -34 79.5t-93 29.5q-33 0 -69.5 -5.5t-56.5 -10.5l-20 -5l-20 -106h-113l-10 205q194 61 317 61q132 0 197.5 -57t65.5 -178v-426l116 -29v-92l-223 -10l-33 106l-13 -13t-34.5 -29t-53 -37t-64.5 -29t-74 -13 q-111 0 -169.5 59t-58.5 171zM119 338v143h706v-143h-706zM262 877q0 -43 29 -69t78 -26q43 0 87 23t66 46l23 23v119h-99q-96 0 -140 -25.5t-44 -90.5z" />
<glyph unicode="&#xab;" horiz-adv-x="1105" d="M123 481v123l287 328l122 -82l-225 -307l225 -307l-122 -82zM563 481v123l297 328l123 -82l-235 -307l235 -307l-123 -82z" />
<glyph unicode="&#xac;" d="M123 563v164h1024v-553h-174v389h-850z" />
<glyph unicode="&#xad;" horiz-adv-x="778" d="M123 471v174h532v-174h-532z" />
<glyph unicode="&#xae;" horiz-adv-x="1474" d="M113 922q0 177 81 319.5t223.5 223.5t319.5 81q178 0 320 -75.5t223.5 -214t81.5 -314.5t-86 -319.5t-234 -224.5t-325 -81q-268 0 -436 168t-168 437zM266 932q0 -218 124 -349.5t337 -131.5q215 0 348 133t133 348t-133 348t-348 133q-213 0 -337 -131.5t-124 -349.5z M440 604v82l82 21v475l-82 16v76l308 6q104 0 171.5 -49.5t67.5 -138.5q0 -133 -127 -181l2 -1q2 -2 5 -4.5t7 -6.5t9 -9.5t10.5 -13t12 -18t12.5 -22.5l65 -129l82 -21v-82h-176l-82 174q-33 71 -52.5 89t-60.5 18h-39v-178l82 -21v-82h-297zM655 979h72q55 0 89 27t34 75 q0 45 -30 71t-83 26h-82v-199z" />
<glyph unicode="&#xaf;" horiz-adv-x="573" d="M10 1352v153h553v-153h-553z" />
<glyph unicode="&#xb0;" horiz-adv-x="839" d="M102 1198q0 137 89.5 222t228.5 85q140 0 228.5 -80.5t88.5 -216.5q0 -144 -88.5 -230.5t-228.5 -86.5q-141 0 -229.5 82t-88.5 225zM246 1208q0 -93 45 -143.5t129 -50.5t129 50.5t45 143.5q0 83 -47.5 128.5t-126.5 45.5t-126.5 -45.5t-47.5 -128.5z" />
<glyph unicode="&#xb1;" d="M113 0v160h1034v-160h-1034zM113 618v160h430v328h174v-328h430v-160h-430v-331h-174v331h-430z" />
<glyph unicode="&#xb2;" horiz-adv-x="798" d="M72 573v142q40 32 98 79.5t86 70.5t70 58t61 53t45 45t37 44t23 39t16 42t4 42q0 123 -154 123q-33 0 -64.5 -5.5t-47.5 -10.5l-15 -5l-14 -123h-123l-6 224q148 53 277 53q158 0 244.5 -60.5t86.5 -185.5q0 -62 -17 -111t-66.5 -107t-113.5 -113t-182 -148h400v-146 h-645z" />
<glyph unicode="&#xb3;" horiz-adv-x="774" d="M41 639l41 123q14 -7 38 -17.5t90.5 -27.5t123.5 -17q80 0 124 34t44 95t-47 90t-146 29h-84v125h94q173 0 173 131q0 50 -35.5 78.5t-108.5 28.5q-39 0 -74 -4.5t-50 -9.5l-15 -5l-10 -114h-119l-8 227q163 39 286 39q146 0 227 -57.5t81 -161.5q0 -84 -50 -135.5 t-131 -67.5q77 -8 137 -61.5t60 -129.5q0 -134 -97 -201t-259 -67q-68 0 -139 19t-109 38z" />
<glyph unicode="&#xb4;" horiz-adv-x="501" d="M0 1321l399 317l103 -153l-430 -266z" />
<glyph unicode="&#xb5;" horiz-adv-x="1341" d="M51 963v112l379 10v-739q3 -98 46.5 -145t137.5 -47q49 0 97.5 16.5t83 40t62 47.5t41.5 40l13 17v607l-174 41v112l379 10v-921l174 -41v-113l-338 -10l-20 143q-26 -22 -58 -44t-84 -52t-115 -48.5t-122 -18.5q-61 0 -123 20v-471h-205v1393z" />
<glyph unicode="&#xb6;" horiz-adv-x="1290" d="M123 1034q0 174 113 287t307 113h262l352 -11v-112l-174 -41v-1618h-178v1618h-162v-1618h-356v123l184 41v811q-150 15 -249 129t-99 278z" />
<glyph unicode="&#xb7;" horiz-adv-x="540" d="M133 625q0 69 38.5 108t98.5 39q65 0 101.5 -38t36.5 -109q0 -69 -39 -108.5t-99 -39.5q-65 0 -101 38.5t-36 109.5z" />
<glyph unicode="&#xb8;" horiz-adv-x="892" d="M225 -391l49 84q84 -43 158 -43q51 0 82 24t31 64q0 47 -45 73.5t-123 26.5v162h123v-88q83 -14 130.5 -61t47.5 -117q0 -82 -61.5 -132.5t-161.5 -50.5q-59 0 -116.5 14.5t-85.5 28.5z" />
<glyph unicode="&#xb9;" horiz-adv-x="716" d="M31 1239l309 195h152v-727h184v-134h-553v134h194v542l-215 -133z" />
<glyph unicode="&#xba;" horiz-adv-x="1013" d="M102 1034q0 191 111 305.5t289 114.5q176 0 272 -102t96 -287q0 -192 -106 -306t-283 -114q-179 0 -279 99.5t-100 289.5zM123 338v143h727v-143h-727zM276 1044q0 -126 59.5 -191t156.5 -65q96 0 150 66.5t54 200.5q0 121 -55 188.5t-149 67.5q-97 0 -156.5 -67.5 t-59.5 -199.5z" />
<glyph unicode="&#xbb;" horiz-adv-x="1105" d="M123 236l235 307l-235 307l123 82l297 -328v-123l-297 -327zM573 236l226 307l-226 307l123 82l287 -328v-123l-287 -327z" />
<glyph unicode="&#xbc;" horiz-adv-x="1986" d="M82 1239l309 195h152v-727h174v-134h-543v134h195v542l-215 -133zM461 0l829 1434h185l-830 -1434h-184zM1124 307l416 574l201 -21v-541h143v-133h-143v-186h-174v186h-430zM1303 319h264v367z" />
<glyph unicode="&#xbd;" horiz-adv-x="1945" d="M82 1239l309 195h152v-727h174v-134h-543v134h195v542l-215 -133zM461 0l829 1434h185l-830 -1434h-184zM1188 0v141q40 32 98 79.5t86 70.5t70 58t61 53t45 45t37 44t23 39t16 42t4 42q0 123 -153 123q-33 0 -64.5 -5t-46.5 -10l-16 -5l-15 -123h-123l-6 223 q148 53 277 53q158 0 244.5 -60t86.5 -185q0 -62 -17 -111.5t-66 -107t-113 -113.5t-182 -148h399v-145h-645z" />
<glyph unicode="&#xbe;" horiz-adv-x="1972" d="M72 639l41 123q14 -7 38 -17.5t90.5 -27.5t123.5 -17q80 0 123.5 34t43.5 95t-47 90t-145 29h-84v125h94q172 0 172 131q0 107 -143 107q-39 0 -74 -4.5t-50 -9.5l-15 -5l-11 -114h-118l-9 227q164 39 287 39q146 0 226.5 -57.5t80.5 -161.5q0 -84 -49.5 -135.5 t-130.5 -67.5q77 -8 137 -61.5t60 -129.5q0 -134 -97.5 -201t-259.5 -67q-68 0 -139 19t-108 38zM446 0l830 1434h184l-829 -1434h-185zM1110 307l416 574l200 -21v-541h144v-133h-144v-186h-174v186h-430zM1288 319h264v367z" />
<glyph unicode="&#xbf;" horiz-adv-x="974" d="M133 -102q0 72 28 138.5t70 114t91.5 95.5t91.5 85.5t70 82t28 86.5l-4 127l184 12q19 -140 19 -201q0 -49 -37.5 -99.5t-91 -96t-106.5 -93.5t-90.5 -108t-37.5 -123q0 -84 53.5 -124t161.5 -40q45 0 99 7t85 13l31 7l33 -154q-135 -47 -258 -47q-68 0 -126.5 9t-114 32 t-94 58.5t-62 91.5t-23.5 127zM451 983q0 67 38.5 105t94.5 38q62 0 97.5 -37.5t35.5 -105.5q0 -67 -38.5 -105t-94.5 -38q-62 0 -97.5 37.5t-35.5 105.5z" />
<glyph unicode="&#xc0;" horiz-adv-x="1484" d="M10 0v123l168 39l467 1261l205 11l455 -1272l170 -39v-123h-594v123l190 39l-78 227h-532l-80 -227l192 -39v-123h-563zM502 1761l102 154l379 -297l-82 -113zM516 553h422l-207 616z" />
<glyph unicode="&#xc1;" horiz-adv-x="1484" d="M10 0v123l168 39l467 1261l205 11l455 -1272l170 -39v-123h-594v123l190 39l-78 227h-532l-80 -227l192 -39v-123h-563zM516 553h422l-207 616zM639 1614l373 297l104 -150l-399 -256z" />
<glyph unicode="&#xc2;" horiz-adv-x="1486" d="M10 0v123l168 39l467 1261l205 11l455 -1272l170 -39v-123h-594v123l190 39l-78 227h-532l-80 -227l192 -39v-123h-563zM379 1628l297 246l123 10l297 -256l-82 -92l-273 190l-280 -190zM516 553h422l-207 616z" />
<glyph unicode="&#xc3;" horiz-adv-x="1484" d="M10 0v123l168 39l467 1261l205 11l455 -1272l170 -39v-123h-594v123l190 39l-78 227h-532l-80 -227l192 -39v-123h-563zM416 1630q3 8 9.5 21t28.5 46t46 58.5t62.5 46.5t78.5 21q60 0 124 -23.5t123.5 -47t110.5 -23.5q36 0 69.5 21.5t49.5 43.5l15 21l71 -62 q-3 -7 -8.5 -19.5t-26 -44.5t-43 -56t-60 -44t-77.5 -20q-74 0 -186.5 45t-171.5 45q-36 0 -72 -22.5t-54 -44.5l-18 -23zM516 553h422l-207 616z" />
<glyph unicode="&#xc4;" horiz-adv-x="1484" d="M10 0v123l168 39l467 1261l205 11l455 -1272l170 -39v-123h-594v123l190 39l-78 227h-532l-80 -227l192 -39v-123h-563zM440 1690q0 56 32.5 89t80.5 33q53 0 83 -32t30 -90q0 -57 -32.5 -90t-80.5 -33q-53 0 -83 32.5t-30 90.5zM516 553h422l-207 616zM860 1690 q0 56 32.5 89t80.5 33q53 0 82.5 -32t29.5 -90q0 -57 -32 -90t-80 -33q-53 0 -83 32.5t-30 90.5z" />
<glyph unicode="&#xc5;" horiz-adv-x="1484" d="M10 0v123l168 39l467 1261q-60 26 -96.5 79t-36.5 126q0 104 71.5 170t164.5 66q94 0 164.5 -61.5t70.5 -164.5q0 -73 -36.5 -128t-94.5 -83l453 -1265l170 -39v-123h-594v123l190 39l-78 227h-532l-80 -227l192 -39v-123h-563zM516 553h422l-207 616zM635 1632 q0 -61 29.5 -94t83.5 -33q49 0 80.5 34.5t31.5 94.5q0 61 -29 94t-83 33q-49 0 -81 -34.5t-32 -94.5z" />
<glyph unicode="&#xc6;" horiz-adv-x="1964" d="M10 0v123l183 41l567 1106l-174 41v112l258 11h977v-349h-133l-52 185h-438v-441h469v-163h-469v-502h469l41 205h133v-369h-1042v123l184 41v256h-451l-129 -262l160 -35v-123h-553zM614 584h369v686h-31z" />
<glyph unicode="&#xc7;" horiz-adv-x="1361" d="M123 686q0 353 185.5 560.5t500.5 207.5q100 0 215 -25.5t180 -50.5l66 -26l-10 -346h-154l-55 233q-109 41 -263 41q-208 0 -319 -150.5t-111 -433.5q0 -266 119.5 -399t321.5 -133q60 0 124.5 17t113 41t88.5 48t61 41l22 17l82 -133q-7 -7 -19.5 -19t-55 -43.5 t-88 -57.5t-116 -52.5t-141.5 -36.5v-76q81 -14 127.5 -60t46.5 -122q0 -78 -65.5 -128.5t-159.5 -50.5q-59 0 -119 16t-90 32l-30 16l53 86q94 -47 176 -47q39 0 65.5 22.5t26.5 59.5q0 46 -44 74t-120 28v146q-292 12 -453 192.5t-161 511.5z" />
<glyph unicode="&#xc8;" d="M102 0v123l174 41v1106l-174 41v112l390 11h624v-349h-133l-51 185h-440v-441h471v-163h-471v-502h471l41 205h133v-369h-1035zM358 1761l103 154l379 -297l-82 -113z" />
<glyph unicode="&#xc9;" d="M102 0v123l174 41v1106l-174 41v112l390 11h624v-349h-133l-51 185h-440v-441h471v-163h-471v-502h471l41 205h133v-369h-1035zM496 1614l372 297l105 -150l-400 -256z" />
<glyph unicode="&#xca;" d="M102 0v123l174 41v1106l-174 41v112l390 11h624v-349h-133l-51 185h-440v-441h471v-163h-471v-502h471l41 205h133v-369h-1035zM276 1628l297 246l123 10l297 -256l-82 -92l-272 190l-281 -190z" />
<glyph unicode="&#xcb;" d="M102 0v123l174 41v1106l-174 41v112l390 11h624v-349h-133l-51 185h-440v-441h471v-163h-471v-502h471l41 205h133v-369h-1035zM328 1690q0 57 32 89.5t80 32.5q53 0 83 -32t30 -90q0 -57 -32.5 -90t-80.5 -33q-53 0 -82.5 32.5t-29.5 90.5zM748 1690q0 57 32 89.5 t80 32.5q53 0 83 -32t30 -90q0 -57 -32.5 -90t-80.5 -33q-53 0 -82.5 32.5t-29.5 90.5z" />
<glyph unicode="&#xcc;" horiz-adv-x="737" d="M51 1761l103 154l378 -297l-81 -113zM102 0v123l174 41v1106l-174 41v112l564 11v-123l-174 -41v-1106l174 -41v-123h-564z" />
<glyph unicode="&#xcd;" horiz-adv-x="747" d="M92 0v123l174 41v1106l-174 41v112l563 11v-123l-174 -41v-1106l174 -41v-123h-563zM199 1614l372 297l105 -150l-400 -256z" />
<glyph unicode="&#xce;" horiz-adv-x="770" d="M41 1628l283 246l122 10l283 -256l-82 -92l-258 190l-266 -190zM109 0v123l174 41v1106l-174 41v112l563 11v-123l-174 -41v-1106l174 -41v-123h-563z" />
<glyph unicode="&#xcf;" horiz-adv-x="727" d="M41 1690q0 56 32.5 89t80.5 33q53 0 82.5 -32t29.5 -90q0 -57 -32 -90t-80 -33q-53 0 -83 32.5t-30 90.5zM82 0v123l174 41v1106l-174 41v112l563 11v-123l-174 -41v-1106l174 -41v-123h-563zM461 1690q0 57 32 89.5t80 32.5q53 0 83 -32t30 -90q0 -57 -32.5 -90 t-80.5 -33q-53 0 -82.5 32.5t-29.5 90.5z" />
<glyph unicode="&#xd0;" horiz-adv-x="1511" d="M92 0v123l174 41v512h-174v162h174v432l-174 41v112l389 11h262q303 0 474.5 -181t171.5 -516q0 -338 -184 -537.5t-492 -199.5h-621zM479 164h244q200 0 315 140.5t115 422.5q0 276 -110.5 409.5t-309.5 133.5h-254v-432h320v-162h-320v-512z" />
<glyph unicode="&#xd1;" horiz-adv-x="1617" d="M82 0v123l174 41v1106l-174 41v112l430 11l676 -1145v981l-174 41v112l532 11v-123l-174 -41v-1270h-256l-676 1128v-964l195 -41v-123h-553zM399 1630q3 8 9.5 21t28.5 46t46.5 58.5t63 46.5t78.5 21q60 0 124 -23.5t123.5 -47t110.5 -23.5q36 0 69.5 21.5t48.5 43.5 l15 21l72 -62q-3 -7 -8.5 -19.5t-26 -44.5t-43 -56t-60 -44t-77.5 -20q-74 0 -187 45t-172 45q-36 0 -72 -22.5t-54 -44.5l-17 -23z" />
<glyph unicode="&#xd2;" horiz-adv-x="1546" d="M123 707q0 340 179.5 543.5t485.5 203.5q298 0 466.5 -192.5t168.5 -524.5q0 -167 -49.5 -308t-138 -240t-214 -154t-273.5 -55q-300 0 -462.5 187.5t-162.5 539.5zM358 717q0 -278 100.5 -420.5t299.5 -142.5q204 0 317 144t113 429q0 275 -104.5 414t-305.5 139 q-204 0 -312 -138.5t-108 -424.5zM481 1761l103 154l379 -297l-82 -113z" />
<glyph unicode="&#xd3;" horiz-adv-x="1546" d="M123 707q0 340 179.5 543.5t485.5 203.5q298 0 466.5 -192.5t168.5 -524.5q0 -167 -49.5 -308t-138 -240t-214 -154t-273.5 -55q-300 0 -462.5 187.5t-162.5 539.5zM358 717q0 -278 100.5 -420.5t299.5 -142.5q204 0 317 144t113 429q0 275 -104.5 414t-305.5 139 q-204 0 -312 -138.5t-108 -424.5zM567 1614l373 297l104 -150l-399 -256z" />
<glyph unicode="&#xd4;" horiz-adv-x="1546" d="M123 707q0 340 179.5 543.5t485.5 203.5q298 0 466.5 -192.5t168.5 -524.5q0 -167 -49.5 -308t-138 -240t-214 -154t-273.5 -55q-300 0 -462.5 187.5t-162.5 539.5zM358 717q0 -278 100.5 -420.5t299.5 -142.5q204 0 317 144t113 429q0 275 -104.5 414t-305.5 139 q-204 0 -312 -138.5t-108 -424.5zM408 1628l297 246l122 10l297 -256l-82 -92l-272 190l-281 -190z" />
<glyph unicode="&#xd5;" horiz-adv-x="1546" d="M123 707q0 340 179.5 543.5t485.5 203.5q298 0 466.5 -192.5t168.5 -524.5q0 -167 -49.5 -308t-138 -240t-214 -154t-273.5 -55q-300 0 -462.5 187.5t-162.5 539.5zM358 717q0 -278 100.5 -420.5t299.5 -142.5q204 0 317 144t113 429q0 275 -104.5 414t-305.5 139 q-204 0 -312 -138.5t-108 -424.5zM377 1630q3 8 9.5 21t28.5 46t46 58.5t62.5 46.5t78.5 21q60 0 124 -23.5t124 -47t111 -23.5q36 0 69.5 21.5t48.5 43.5l15 21l71 -62q-3 -7 -8.5 -19.5t-26 -44.5t-43 -56t-60 -44t-77.5 -20q-74 0 -186.5 45t-171.5 45q-36 0 -72 -22.5 t-54 -44.5l-17 -23z" />
<glyph unicode="&#xd6;" horiz-adv-x="1546" d="M123 707q0 340 179.5 543.5t485.5 203.5q298 0 466.5 -192.5t168.5 -524.5q0 -167 -49.5 -308t-138 -240t-214 -154t-273.5 -55q-300 0 -462.5 187.5t-162.5 539.5zM358 717q0 -278 100.5 -420.5t299.5 -142.5q204 0 317 144t113 429q0 275 -104.5 414t-305.5 139 q-204 0 -312 -138.5t-108 -424.5zM451 1690q0 57 32 89.5t80 32.5q53 0 83 -32t30 -90q0 -57 -32.5 -90t-80.5 -33q-53 0 -82.5 32.5t-29.5 90.5zM870 1690q0 56 32.5 89t80.5 33q53 0 83 -32t30 -90q0 -57 -32.5 -90t-80.5 -33q-53 0 -83 32.5t-30 90.5z" />
<glyph unicode="&#xd7;" horiz-adv-x="1228" d="M123 166l377 377l-377 377l115 114l376 -377l377 377l115 -114l-377 -377l377 -377l-115 -115l-377 377l-376 -377z" />
<glyph unicode="&#xd8;" horiz-adv-x="1566" d="M133 707q0 340 180 543.5t486 203.5q169 0 299 -65l131 219l133 -72l-139 -231q102 -95 156.5 -239.5t54.5 -328.5q0 -223 -85.5 -395.5t-239 -267t-351.5 -94.5q-172 0 -297 61l-154 -256l-133 72l162 268q-203 185 -203 582zM369 717q0 -254 84 -398l546 908 q-89 53 -211 53q-419 0 -419 -563zM561 207q83 -53 207 -53q204 0 317 144t113 429q0 249 -88 391z" />
<glyph unicode="&#xd9;" horiz-adv-x="1617" d="M82 1311v112l584 11v-123l-195 -41v-717q0 -153 36.5 -240.5t108 -123t193.5 -35.5q191 0 264.5 95.5t73.5 334.5v686l-195 41v112l584 11v-123l-174 -41v-686q0 -148 -28 -255.5t-92 -188t-174.5 -120.5t-268.5 -40q-292 0 -417.5 140t-125.5 433v717zM481 1761l103 154 l379 -297l-82 -113z" />
<glyph unicode="&#xda;" horiz-adv-x="1617" d="M82 1311v112l584 11v-123l-195 -41v-717q0 -153 36.5 -240.5t108 -123t193.5 -35.5q191 0 264.5 95.5t73.5 334.5v686l-195 41v112l584 11v-123l-174 -41v-686q0 -148 -28 -255.5t-92 -188t-174.5 -120.5t-268.5 -40q-292 0 -417.5 140t-125.5 433v717zM657 1614l373 297 l105 -150l-400 -256z" />
<glyph unicode="&#xdb;" horiz-adv-x="1617" d="M82 1311v112l584 11v-123l-195 -41v-717q0 -153 36.5 -240.5t108 -123t193.5 -35.5q191 0 264.5 95.5t73.5 334.5v686l-195 41v112l584 11v-123l-174 -41v-686q0 -148 -28 -255.5t-92 -188t-174.5 -120.5t-268.5 -40q-292 0 -417.5 140t-125.5 433v717zM451 1628l297 246 l122 10l297 -256l-82 -92l-272 190l-281 -190z" />
<glyph unicode="&#xdc;" horiz-adv-x="1619" d="M82 1311v112l584 11v-123l-195 -41v-717q0 -153 36.5 -240.5t108 -123t193.5 -35.5q191 0 264.5 95.5t73.5 334.5v686l-195 41v112l584 11v-123l-174 -41v-686q0 -148 -28 -255.5t-92 -188t-174.5 -120.5t-268.5 -40q-292 0 -417.5 140t-125.5 433v717zM481 1690 q0 56 32.5 89t80.5 33q53 0 83 -32t30 -90q0 -57 -32.5 -90t-80.5 -33q-53 0 -83 32.5t-30 90.5zM901 1690q0 56 32.5 89t80.5 33q53 0 82.5 -32t29.5 -90q0 -57 -32 -90t-80 -33q-53 0 -83 32.5t-30 90.5z" />
<glyph unicode="&#xdd;" horiz-adv-x="1320" d="M20 1311v112l512 11v-123l-139 -41l273 -574l301 574l-158 41v112l491 11v-123l-126 -37l-406 -739v-371l174 -41v-123h-563v123l174 41v366l-395 742zM526 1614l373 297l105 -150l-400 -256z" />
<glyph unicode="&#xde;" horiz-adv-x="1218" d="M82 0v123l174 41v1106l-174 41v112l563 11v-123l-174 -41v-113h215q222 0 346.5 -100.5t124.5 -278.5q0 -222 -141 -341.5t-402 -119.5h-143v-153l174 -41v-123h-563zM471 481h143q162 0 250 68.5t88 198.5q0 109 -74 177t-202 68h-205v-512z" />
<glyph unicode="&#xdf;" horiz-adv-x="1474" d="M92 922v133l225 20v113q0 190 120 299.5t321 109.5q143 0 248 -31.5t169 -104t64 -181.5q0 -55 -20 -103.5t-49.5 -81t-64.5 -66t-64.5 -59.5t-49.5 -60t-20 -70q0 -45 26 -80.5t67 -59t91 -45.5t100.5 -48.5t92 -60t68.5 -86.5t28 -122q1 -78 -34.5 -146t-95.5 -114 t-136.5 -72t-157.5 -26q-36 0 -71.5 2.5t-64.5 6.5t-55.5 9t-46.5 9.5t-34.5 8.5t-22.5 6l-8 3v294h133l31 -165q5 -3 15 -7t46 -10t80 -4q92 3 151 44t56 120q-2 45 -28.5 79t-68.5 56.5t-92 43.5t-99.5 48t-90.5 61t-66.5 91.5t-25.5 132.5q0 58 20.5 105.5t51 77.5 t66.5 61.5t66.5 57.5t51 65t20.5 84q0 68 -40.5 111t-96.5 58t-129 15q-109 0 -177.5 -58.5t-68.5 -156.5v-1229h-379v113l174 51v758h-225z" />
<glyph unicode="&#xe0;" horiz-adv-x="1157" d="M92 287q0 169 121.5 243t349.5 74h164v164q0 91 -50.5 137.5t-144.5 46.5q-55 0 -106.5 -7.5t-75.5 -14.5l-24 -8l-29 -154h-133l-10 256q25 9 67.5 22.5t148.5 36.5t183 23q187 0 283 -74t96 -244v-624l164 -41v-113l-318 -10l-43 143q-66 -66 -153 -114.5t-183 -48.5 q-146 0 -226.5 80.5t-80.5 226.5zM276 1485l103 153l399 -317l-71 -102zM301 297q0 -69 40.5 -111.5t109.5 -42.5q43 0 87.5 17t77 41t58.5 48t40 41l13 17v164h-143q-153 0 -218 -40.5t-65 -133.5z" />
<glyph unicode="&#xe1;" horiz-adv-x="1157" d="M92 287q0 169 121.5 243t349.5 74h164v164q0 91 -50.5 137.5t-144.5 46.5q-55 0 -106.5 -7.5t-75.5 -14.5l-24 -8l-29 -154h-133l-10 256q25 9 67.5 22.5t148.5 36.5t183 23q187 0 283 -74t96 -244v-624l164 -41v-113l-318 -10l-43 143q-66 -66 -153 -114.5t-183 -48.5 q-146 0 -226.5 80.5t-80.5 226.5zM301 297q0 -69 40.5 -111.5t109.5 -42.5q43 0 87.5 17t77 41t58.5 48t40 41l13 17v164h-143q-153 0 -218 -40.5t-65 -133.5zM328 1321l399 317l102 -153l-430 -266z" />
<glyph unicode="&#xe2;" horiz-adv-x="1157" d="M92 287q0 169 121.5 243t349.5 74h164v164q0 91 -50.5 137.5t-144.5 46.5q-55 0 -106.5 -7.5t-75.5 -14.5l-24 -8l-29 -154h-133l-10 256q25 9 67.5 22.5t148.5 36.5t183 23q187 0 283 -74t96 -244v-624l164 -41v-113l-318 -10l-43 143q-66 -66 -153 -114.5t-183 -48.5 q-146 0 -226.5 80.5t-80.5 226.5zM164 1321l307 276l123 11l307 -287l-82 -92l-282 221l-291 -221zM301 297q0 -69 40.5 -111.5t109.5 -42.5q43 0 87.5 17t77 41t58.5 48t40 41l13 17v164h-143q-153 0 -218 -40.5t-65 -133.5z" />
<glyph unicode="&#xe3;" horiz-adv-x="1157" d="M92 287q0 169 121.5 243t349.5 74h164v164q0 91 -50.5 137.5t-144.5 46.5q-55 0 -106.5 -7.5t-75.5 -14.5l-24 -8l-29 -154h-133l-10 256q25 9 67.5 22.5t148.5 36.5t183 23q187 0 283 -74t96 -244v-624l164 -41v-113l-318 -10l-43 143q-66 -66 -153 -114.5t-183 -48.5 q-146 0 -226.5 80.5t-80.5 226.5zM150 1374q3 8 9 21t27 45.5t45 58t63 46t81 20.5q60 0 120 -23t115.5 -46t106.5 -23q34 0 68.5 21.5t52.5 43.5l18 21l72 -72q-3 -8 -8.5 -20.5t-26 -44.5t-44 -57t-62 -45t-80.5 -20q-48 0 -96.5 14.5t-82 32t-78 32t-85.5 14.5 q-39 0 -75 -22.5t-52 -44.5l-17 -23zM301 297q0 -69 40.5 -111.5t109.5 -42.5q43 0 87.5 17t77 41t58.5 48t40 41l13 17v164h-143q-153 0 -218 -40.5t-65 -133.5z" />
<glyph unicode="&#xe4;" horiz-adv-x="1157" d="M92 287q0 169 121.5 243t349.5 74h164v164q0 91 -50.5 137.5t-144.5 46.5q-55 0 -106.5 -7.5t-75.5 -14.5l-24 -8l-29 -154h-133l-10 256q25 9 67.5 22.5t148.5 36.5t183 23q187 0 283 -74t96 -244v-624l164 -41v-113l-318 -10l-43 143q-66 -66 -153 -114.5t-183 -48.5 q-146 0 -226.5 80.5t-80.5 226.5zM215 1434q0 56 32.5 89t80.5 33q53 0 82.5 -32t29.5 -90q0 -57 -32 -90t-80 -33q-53 0 -83 32.5t-30 90.5zM301 297q0 -69 40.5 -111.5t109.5 -42.5q43 0 87.5 17t77 41t58.5 48t40 41l13 17v164h-143q-153 0 -218 -40.5t-65 -133.5z M635 1434q0 56 32.5 89t80.5 33q53 0 82.5 -32t29.5 -90q0 -57 -32 -90t-80 -33q-53 0 -83 32.5t-30 90.5z" />
<glyph unicode="&#xe5;" horiz-adv-x="1157" d="M92 287q0 169 121.5 243t349.5 74h164v164q0 91 -50.5 137.5t-144.5 46.5q-55 0 -106.5 -7.5t-75.5 -14.5l-24 -8l-29 -154h-133l-10 256q25 9 67.5 22.5t148.5 36.5t183 23q187 0 283 -74t96 -244v-624l164 -41v-113l-318 -10l-43 143q-66 -66 -153 -114.5t-183 -48.5 q-146 0 -226.5 80.5t-80.5 226.5zM301 297q0 -69 40.5 -111.5t109.5 -42.5q43 0 87.5 17t77 41t58.5 48t40 41l13 17v164h-143q-153 0 -218 -40.5t-65 -133.5zM342 1444q0 104 71.5 169.5t164.5 65.5q94 0 164.5 -61t70.5 -164q0 -104 -71 -169.5t-164 -65.5q-94 0 -165 61 t-71 164zM465 1448q0 -61 29.5 -94t83.5 -33q49 0 80.5 34.5t31.5 94.5q0 61 -29 94t-83 33q-49 0 -81 -34.5t-32 -94.5z" />
<glyph unicode="&#xe6;" horiz-adv-x="1710" d="M92 287q0 169 121.5 243t349.5 74h164v164q0 91 -50.5 137.5t-144.5 46.5q-55 0 -106.5 -7.5t-75.5 -14.5l-24 -8l-29 -154h-133l-10 256q25 9 67.5 22.5t148.5 36.5t183 23q245 0 319 -143q130 143 336 143q430 0 430 -481q0 -23 -2.5 -50t-5.5 -45l-2 -18h-706 q0 -168 82 -268.5t215 -100.5q91 0 177 28.5t126 56.5l41 28l71 -106q-8 -7 -22 -18.5t-60 -40.5t-94.5 -51.5t-119.5 -41t-140 -18.5q-287 0 -403 217q-15 -20 -36 -42.5t-60 -55.5t-81.5 -58t-101 -43t-117.5 -18q-146 0 -226.5 80.5t-80.5 226.5zM297 297 q0 -69 42.5 -111.5t111.5 -42.5q43 0 87.5 18t77 43.5t58.5 51t40 43.5l13 18v154h-143q-153 0 -220 -40.5t-67 -133.5zM930 666h491q0 126 -53.5 203t-169.5 77q-118 0 -188.5 -79t-79.5 -201z" />
<glyph unicode="&#xe7;" horiz-adv-x="1044" d="M82 543q0 249 144.5 406t387.5 157q82 0 169 -20.5t133 -41.5l47 -20l-11 -276h-133l-31 174q-82 20 -184 20q-149 0 -228 -95t-79 -284q0 -204 84 -312t233 -108q55 0 107.5 12.5t89 30.5t65 36.5t42.5 31.5l14 12l72 -123q-6 -5 -17.5 -14.5t-49 -34t-76 -44.5 t-95 -39.5t-111.5 -26.5v-74q83 -15 131 -63t48 -119q0 -78 -63 -127.5t-157 -49.5q-59 0 -117.5 14.5t-86.5 28.5l-29 15l49 84q92 -43 174 -43q41 0 68.5 22.5t27.5 61.5q0 47 -46 75.5t-122 28.5v146q-221 17 -335.5 163t-114.5 396z" />
<glyph unicode="&#xe8;" horiz-adv-x="1105" d="M82 532q0 163 63 293.5t178 205.5t261 75q430 0 430 -481q0 -23 -2.5 -50t-5.5 -45l-2 -18h-707q0 -168 82 -268.5t215 -100.5q91 0 177 28.5t127 56.5l40 28l72 -106q-8 -7 -22 -18.5t-60.5 -40.5t-94.5 -51.5t-119.5 -41t-140.5 -18.5q-241 0 -366 146.5t-125 405.5z M276 1485l103 153l399 -317l-71 -102zM305 666h492q0 126 -54 203t-170 77q-118 0 -188.5 -79t-79.5 -201z" />
<glyph unicode="&#xe9;" horiz-adv-x="1105" d="M82 532q0 163 63 293.5t178 205.5t261 75q430 0 430 -481q0 -23 -2.5 -50t-5.5 -45l-2 -18h-707q0 -168 82 -268.5t215 -100.5q91 0 177 28.5t127 56.5l40 28l72 -106q-8 -7 -22 -18.5t-60.5 -40.5t-94.5 -51.5t-119.5 -41t-140.5 -18.5q-241 0 -366 146.5t-125 405.5z M305 666h492q0 126 -54 203t-170 77q-118 0 -188.5 -79t-79.5 -201zM358 1321l400 317l102 -153l-430 -266z" />
<glyph unicode="&#xea;" horiz-adv-x="1085" d="M82 532q0 163 63 293.5t178 205.5t261 75q430 0 430 -481q0 -23 -2.5 -50t-5.5 -45l-2 -18h-707q0 -168 82 -268.5t215 -100.5q91 0 177 28.5t127 56.5l40 28l72 -106q-8 -7 -22 -18.5t-60.5 -40.5t-94.5 -51.5t-119.5 -41t-140.5 -18.5q-241 0 -366 146.5t-125 405.5z M186 1321l308 276l122 11l308 -287l-82 -92l-283 221l-291 -221zM305 666h492q0 126 -54 203t-170 77q-118 0 -188.5 -79t-79.5 -201z" />
<glyph unicode="&#xeb;" horiz-adv-x="1085" d="M82 532q0 163 63 293.5t178 205.5t261 75q430 0 430 -481q0 -23 -2.5 -50t-5.5 -45l-2 -18h-707q0 -168 82 -268.5t215 -100.5q91 0 177 28.5t127 56.5l40 28l72 -106q-8 -7 -22 -18.5t-60.5 -40.5t-94.5 -51.5t-119.5 -41t-140.5 -18.5q-241 0 -366 146.5t-125 405.5z M236 1434q0 57 32 89.5t80 32.5q53 0 83 -32t30 -90q0 -57 -32.5 -90t-80.5 -33q-53 0 -82.5 32.5t-29.5 90.5zM305 666h492q0 126 -54 203t-170 77q-118 0 -188.5 -79t-79.5 -201zM655 1434q0 56 32.5 89t80.5 33q53 0 83 -32t30 -90q0 -57 -32.5 -90t-80.5 -33 q-53 0 -83 32.5t-30 90.5z" />
<glyph unicode="&#xec;" horiz-adv-x="686" d="M31 1485l102 153l399 -317l-71 -102zM82 0v113l174 51v758l-174 41v112l379 10v-921l153 -51v-113h-532z" />
<glyph unicode="&#xed;" horiz-adv-x="686" d="M82 0v113l174 51v758l-174 41v112l379 10v-921l153 -51v-113h-532zM133 1321l399 317l103 -153l-430 -266z" />
<glyph unicode="&#xee;" horiz-adv-x="706" d="M0 1321l287 276l123 11l286 -287l-82 -92l-262 221l-270 -221zM92 0v113l174 51v758l-174 41v112l379 10v-921l154 -51v-113h-533z" />
<glyph unicode="&#xef;" horiz-adv-x="686" d="M31 1434q0 57 32 89.5t80 32.5q53 0 83 -32t30 -90q0 -57 -32.5 -90t-80.5 -33q-53 0 -82.5 32.5t-29.5 90.5zM82 0v113l174 51v758l-174 41v112l379 10v-921l153 -51v-113h-532zM430 1434q0 56 32.5 89t80.5 33q53 0 82.5 -32t29.5 -90q0 -57 -32 -90t-80 -33 q-53 0 -83 32.5t-30 90.5z" />
<glyph unicode="&#xf0;" horiz-adv-x="1177" d="M82 502q0 259 135 406t367 147q141 0 252 -86q-74 202 -230 331l-268 -143l-82 113l221 119q-82 46 -201 86l62 129q166 -39 303 -125l229 125l84 -115l-192 -105q152 -137 237.5 -347.5t85.5 -493.5q0 -253 -141 -408t-371 -155q-232 0 -361.5 135.5t-129.5 386.5z M297 512q0 -174 72 -271.5t215 -97.5q150 0 218 95t68 284q0 179 -64.5 274t-211.5 95q-297 0 -297 -379z" />
<glyph unicode="&#xf1;" horiz-adv-x="1361" d="M82 0v113l174 51v758l-174 41v112l338 10l18 -145q24 21 58 45t85.5 53.5t115 48.5t122.5 19q164 0 246 -97.5t82 -271.5v-573l153 -51v-113h-491v113l133 51v553q0 110 -43 162.5t-141 52.5q-49 0 -97.5 -17t-83 -41t-62 -48t-41.5 -41l-13 -17v-604l133 -51v-113h-512z M293 1374q3 8 9 21t27 45.5t45 58t63 46t81 20.5q60 0 120 -23t115.5 -46t106.5 -23q34 0 68.5 21.5t52.5 43.5l18 21l72 -72q-3 -8 -8.5 -20.5t-26 -44.5t-44 -57t-62 -45t-80.5 -20q-48 0 -96.5 14.5t-82 32t-78 32t-85.5 14.5q-25 0 -48.5 -9.5t-40 -22.5t-29.5 -26 t-19 -23l-6 -9z" />
<glyph unicode="&#xf2;" horiz-adv-x="1167" d="M82 532q0 259 145 416.5t377 157.5q227 0 354 -147t127 -396q0 -261 -141 -422t-371 -161q-234 0 -362.5 140t-128.5 412zM297 543q0 -400 287 -400q150 0 218 102.5t68 307.5q0 389 -276 389q-152 0 -224.5 -99t-72.5 -300zM297 1485l102 153l400 -317l-72 -102z" />
<glyph unicode="&#xf3;" horiz-adv-x="1167" d="M82 532q0 259 145 416.5t377 157.5q227 0 354 -147t127 -396q0 -261 -141 -422t-371 -161q-234 0 -362.5 140t-128.5 412zM297 543q0 -400 287 -400q150 0 218 102.5t68 307.5q0 389 -276 389q-152 0 -224.5 -99t-72.5 -300zM369 1321l399 317l102 -153l-430 -266z" />
<glyph unicode="&#xf4;" horiz-adv-x="1167" d="M82 532q0 259 145 416.5t377 157.5q227 0 354 -147t127 -396q0 -261 -141 -422t-371 -161q-234 0 -362.5 140t-128.5 412zM225 1321l307 276l123 11l308 -287l-82 -92l-283 221l-291 -221zM297 543q0 -400 287 -400q150 0 218 102.5t68 307.5q0 389 -276 389 q-152 0 -224.5 -99t-72.5 -300z" />
<glyph unicode="&#xf5;" horiz-adv-x="1167" d="M82 532q0 259 145 416.5t377 157.5q227 0 354 -147t127 -396q0 -261 -141 -422t-371 -161q-234 0 -362.5 140t-128.5 412zM195 1372q3 8 9.5 21t28.5 46t46 58.5t62.5 46.5t78.5 21q48 0 97.5 -15t84 -32.5t80 -32.5t86.5 -15q36 0 69.5 21.5t48.5 42.5l15 22l72 -71 q-3 -8 -8.5 -20t-26 -44t-43 -56.5t-60 -44.5t-77.5 -20q-60 0 -121.5 23t-118.5 45.5t-108 22.5q-36 0 -72 -22.5t-54 -45.5l-18 -23zM297 543q0 -400 287 -400q150 0 218 102.5t68 307.5q0 389 -276 389q-152 0 -224.5 -99t-72.5 -300z" />
<glyph unicode="&#xf6;" horiz-adv-x="1167" d="M82 532q0 259 145 416.5t377 157.5q227 0 354 -147t127 -396q0 -261 -141 -422t-371 -161q-234 0 -362.5 140t-128.5 412zM256 1434q0 56 32.5 89t80.5 33q53 0 82.5 -32t29.5 -90q0 -57 -32 -90t-80 -33q-53 0 -83 32.5t-30 90.5zM297 543q0 -400 287 -400 q150 0 218 102.5t68 307.5q0 389 -276 389q-152 0 -224.5 -99t-72.5 -300zM676 1434q0 57 32 89.5t80 32.5q53 0 83 -32t30 -90q0 -57 -32.5 -90t-80.5 -33q-53 0 -82.5 32.5t-29.5 90.5z" />
<glyph unicode="&#xf7;" horiz-adv-x="1269" d="M102 461v164h1065v-164h-1065zM502 123q0 67 38 105t95 38q62 0 97.5 -37.5t35.5 -105.5q0 -67 -38 -105t-95 -38q-62 0 -97.5 37.5t-35.5 105.5zM502 963q0 67 38 105t95 38q62 0 97.5 -37.5t35.5 -105.5q0 -67 -38.5 -105.5t-94.5 -38.5q-62 0 -97.5 38t-35.5 106z" />
<glyph unicode="&#xf8;" horiz-adv-x="1187" d="M92 532q0 259 145 416.5t377 157.5q116 0 209 -41l129 215l123 -72l-133 -223q154 -145 154 -422q0 -261 -141 -422t-371 -161q-123 0 -219 38l-140 -233l-123 72l142 237q-152 143 -152 438zM307 543q0 -168 47 -262l379 632q-60 29 -129 29q-152 0 -224.5 -99 t-72.5 -300zM457 174q60 -31 137 -31q150 0 218.5 102.5t68.5 307.5q0 155 -47 252z" />
<glyph unicode="&#xf9;" horiz-adv-x="1331" d="M41 963v112l379 10v-718q0 -109 43 -161t141 -52q49 0 97.5 16.5t83 40t62 47.5t41.5 40l13 17v607l-174 41v112l379 10v-921l174 -41v-113l-338 -10l-20 143q-35 -30 -83 -62.5t-134 -66.5t-162 -34q-165 0 -246.5 96t-81.5 270v576zM358 1485l103 153l399 -317 l-72 -102z" />
<glyph unicode="&#xfa;" horiz-adv-x="1331" d="M41 963v112l379 10v-718q0 -109 43 -161t141 -52q49 0 97.5 16.5t83 40t62 47.5t41.5 40l13 17v607l-174 41v112l379 10v-921l174 -41v-113l-338 -10l-20 143q-35 -30 -83 -62.5t-134 -66.5t-162 -34q-165 0 -246.5 96t-81.5 270v576zM440 1321l400 317l102 -153 l-430 -266z" />
<glyph unicode="&#xfb;" horiz-adv-x="1331" d="M41 963v112l379 10v-718q0 -109 43 -161t141 -52q49 0 97.5 16.5t83 40t62 47.5t41.5 40l13 17v607l-174 41v112l379 10v-921l174 -41v-113l-338 -10l-20 143q-35 -30 -83 -62.5t-134 -66.5t-162 -34q-165 0 -246.5 96t-81.5 270v576zM297 1321l307 276l123 11l307 -287 l-82 -92l-282 221l-291 -221z" />
<glyph unicode="&#xfc;" horiz-adv-x="1331" d="M41 963v112l379 10v-718q0 -109 43 -161t141 -52q49 0 97.5 16.5t83 40t62 47.5t41.5 40l13 17v607l-174 41v112l379 10v-921l174 -41v-113l-338 -10l-20 143q-35 -30 -83 -62.5t-134 -66.5t-162 -34q-165 0 -246.5 96t-81.5 270v576zM317 1434q0 56 32.5 89t80.5 33 q53 0 83 -32t30 -90q0 -57 -32.5 -90t-80.5 -33q-53 0 -83 32.5t-30 90.5zM737 1434q0 56 32.5 89t80.5 33q53 0 83 -32t30 -90q0 -57 -32.5 -90t-80.5 -33q-53 0 -83 32.5t-30 90.5z" />
<glyph unicode="&#xfd;" horiz-adv-x="1181" d="M20 963v112l482 10v-122l-144 -21l246 -717l225 707l-143 31v112l485 10v-122l-133 -21l-290 -811q-81 -212 -109 -273q-102 -219 -238 -297q-91 -53 -206 -53q-23 0 -56 3l-55 5l-21 3l19 143h102q100 0 175.5 84.5t150.5 249.5l-367 936zM492 1321l399 317l102 -153 l-430 -266z" />
<glyph unicode="&#xfe;" d="M51 1454v113l379 10v-594q5 5 15 13.5t42 29.5t65 37t81 29.5t94 13.5q216 0 328 -143.5t112 -389.5q0 -132 -33.5 -239.5t-100.5 -187t-173.5 -123t-245.5 -43.5q-45 0 -91 7t-69 14l-24 7v-325l215 -41v-113h-584v113l164 41v1730zM430 184q7 -5 21.5 -11.5t70 -18 t123.5 -11.5q307 0 307 410q0 177 -66.5 283t-199.5 106q-52 0 -97 -14.5t-73 -36t-48.5 -42.5t-29.5 -35l-8 -15v-615z" />
<glyph unicode="&#xff;" horiz-adv-x="1181" d="M20 963v112l482 10v-122l-144 -21l246 -717l225 707l-143 31v112l485 10v-122l-133 -21l-290 -811q-81 -212 -109 -273q-102 -219 -238 -297q-91 -53 -206 -53q-23 0 -56 3l-55 5l-21 3l19 143h102q100 0 175.5 84.5t150.5 249.5l-367 936zM276 1434q0 56 32.5 89 t80.5 33q53 0 83 -32t30 -90q0 -57 -32.5 -90t-80.5 -33q-53 0 -83 32.5t-30 90.5zM696 1434q0 56 32.5 89t80.5 33q53 0 83 -32t30 -90q0 -57 -32.5 -90t-80.5 -33q-53 0 -83 32.5t-30 90.5z" />
<glyph unicode="&#x152;" horiz-adv-x="1914" d="M123 707q0 339 179 538t486 199q54 0 162 -5t146 -5h676v-349h-134l-51 185h-440v-441h471v-163h-471v-502h471l41 205h133v-369h-717q-30 0 -144.5 -5t-182.5 -5q-301 0 -463 183t-162 534zM358 717q0 -278 100.5 -420.5t299.5 -142.5q32 0 75.5 2.5t70.5 5.5l28 2v1106 q-93 10 -154 10q-204 0 -312 -138.5t-108 -424.5z" />
<glyph unicode="&#x153;" horiz-adv-x="1873" d="M82 532q0 259 145 416.5t377 157.5q126 0 225.5 -57t161.5 -156q62 101 159 157t222 56q430 0 430 -481q0 -23 -2.5 -50t-5.5 -45l-2 -18h-707q0 -168 82 -268.5t215 -100.5q91 0 177 28.5t127 56.5l40 28l72 -106q-8 -7 -22 -18.5t-60 -40.5t-94.5 -51.5t-119.5 -41 t-140 -18.5q-268 0 -385 210q-139 -210 -404 -210q-234 0 -362.5 140t-128.5 412zM297 543q0 -400 287 -400q297 0 297 410q0 179 -70 284t-217 105q-152 0 -224.5 -99t-72.5 -300zM1094 666h491q0 126 -53.5 203t-169.5 77q-118 0 -188.5 -79t-79.5 -201z" />
<glyph unicode="&#x178;" horiz-adv-x="1320" d="M20 1311v112l512 11v-123l-139 -41l273 -574l301 574l-158 41v112l491 11v-123l-126 -37l-406 -739v-371l174 -41v-123h-563v123l174 41v366l-395 742zM328 1690q0 57 32 89.5t80 32.5q53 0 83 -32t30 -90q0 -57 -32.5 -90t-80.5 -33q-53 0 -82.5 32.5t-29.5 90.5z M748 1690q0 57 32 89.5t80 32.5q53 0 83 -32t30 -90q0 -57 -32.5 -90t-80.5 -33q-53 0 -82.5 32.5t-29.5 90.5z" />
<glyph unicode="&#x2c6;" horiz-adv-x="1064" d="M174 1423l297 246l123 10l297 -256l-82 -92l-272 191l-281 -191z" />
<glyph unicode="&#x2dc;" horiz-adv-x="1157" d="M195 1372q3 8 9.5 21t28.5 46t46 58.5t62.5 46.5t78.5 21q48 0 97.5 -15t84 -32.5t80 -32.5t86.5 -15q36 0 69.5 21.5t48.5 42.5l15 22l72 -71q-3 -8 -8.5 -20t-26 -44t-43 -56.5t-60 -44.5t-77.5 -20q-60 0 -121.5 23t-118.5 45.5t-108 22.5q-36 0 -72 -22.5t-54 -45.5 l-18 -23z" />
<glyph unicode="&#x2000;" horiz-adv-x="957" />
<glyph unicode="&#x2001;" horiz-adv-x="1915" />
<glyph unicode="&#x2002;" horiz-adv-x="957" />
<glyph unicode="&#x2003;" horiz-adv-x="1915" />
<glyph unicode="&#x2004;" horiz-adv-x="638" />
<glyph unicode="&#x2005;" horiz-adv-x="478" />
<glyph unicode="&#x2006;" horiz-adv-x="319" />
<glyph unicode="&#x2007;" horiz-adv-x="319" />
<glyph unicode="&#x2008;" horiz-adv-x="239" />
<glyph unicode="&#x2009;" horiz-adv-x="383" />
<glyph unicode="&#x200a;" horiz-adv-x="106" />
<glyph unicode="&#x2010;" horiz-adv-x="768" d="M123 471v174h532v-174h-532z" />
<glyph unicode="&#x2011;" horiz-adv-x="768" d="M123 471v174h532v-174h-532z" />
<glyph unicode="&#x2012;" horiz-adv-x="768" d="M123 471v174h532v-174h-532z" />
<glyph unicode="&#x2013;" horiz-adv-x="1024" d="M0 584v164h1024v-164h-1024z" />
<glyph unicode="&#x2014;" horiz-adv-x="1986" d="M0 584v164h1987v-164h-1987z" />
<glyph unicode="&#x2018;" horiz-adv-x="573" d="M133 1167q0 85 63.5 198.5t172.5 231.5l92 -77q-12 -16 -30 -42t-48.5 -84t-30.5 -91q0 -17 23.5 -63.5t23.5 -86.5q0 -59 -37 -98t-96 -39q-133 0 -133 151z" />
<glyph unicode="&#x2019;" horiz-adv-x="573" d="M113 1094q12 16 30 42t48 84t30 91q0 17 -23.5 63t-23.5 86q0 59 37 98t96 39q133 0 133 -151q0 -85 -63 -199t-172 -231z" />
<glyph unicode="&#x201a;" horiz-adv-x="573" d="M113 -279q12 16 30 42t48 84.5t30 91.5q0 17 -23.5 63t-23.5 86q0 59 37 98t96 39q133 0 133 -151q0 -85 -63 -199t-172 -231z" />
<glyph unicode="&#x201c;" horiz-adv-x="972" d="M133 1167q0 85 63.5 198.5t172.5 231.5l92 -77q-12 -16 -30 -42t-48.5 -84t-30.5 -91q0 -17 23.5 -63.5t23.5 -86.5q0 -59 -37 -98t-96 -39q-133 0 -133 151zM532 1167q0 85 63.5 198.5t172.5 231.5l92 -77q-12 -16 -30 -42t-48 -84t-30 -91q0 -17 23.5 -63.5t23.5 -86.5 q0 -59 -37 -98t-96 -39q-60 0 -97 35.5t-37 115.5z" />
<glyph unicode="&#x201d;" horiz-adv-x="972" d="M113 1094q12 16 30 42t48 84t30 91q0 17 -23.5 63t-23.5 86q0 59 37 98t96 39q133 0 133 -151q0 -85 -63 -199t-172 -231zM512 1094q12 16 30 42t48.5 84t30.5 91q0 17 -24 63t-24 86q0 59 37.5 98t96.5 39q133 0 133 -151q0 -85 -63.5 -198.5t-172.5 -231.5z" />
<glyph unicode="&#x201e;" horiz-adv-x="972" d="M113 -279q12 16 30 42t48 84.5t30 91.5q0 17 -23.5 63t-23.5 86q0 59 37 98t96 39q133 0 133 -151q0 -85 -63 -199t-172 -231zM512 -279q12 16 30 42t48.5 84.5t30.5 91.5q0 17 -24 63t-24 86q0 59 37.5 98t96.5 39q133 0 133 -151q0 -85 -63.5 -198.5t-172.5 -231.5z " />
<glyph unicode="&#x2022;" horiz-adv-x="1034" d="M174 645q0 135 96.5 231.5t231.5 96.5t231 -96.5t96 -231.5t-96 -231.5t-231 -96.5t-231.5 96.5t-96.5 231.5z" />
<glyph unicode="&#x2026;" horiz-adv-x="1474" d="M113 123q0 67 38.5 105t94.5 38q62 0 97.5 -37.5t35.5 -105.5q0 -67 -38.5 -105t-94.5 -38q-62 0 -97.5 37.5t-35.5 105.5zM604 123q0 67 38 105t95 38q62 0 97.5 -37.5t35.5 -105.5q0 -67 -38 -105t-95 -38q-62 0 -97.5 37.5t-35.5 105.5zM1096 123q0 67 38 105t95 38 q62 0 97.5 -37.5t35.5 -105.5q0 -67 -38 -105t-95 -38q-62 0 -97.5 37.5t-35.5 105.5z" />
<glyph unicode="&#x202f;" horiz-adv-x="383" />
<glyph unicode="&#x2039;" horiz-adv-x="645" d="M113 481v123l297 328l122 -82l-235 -307l235 -307l-122 -82z" />
<glyph unicode="&#x203a;" horiz-adv-x="645" d="M123 236l235 307l-235 307l123 82l297 -328v-123l-297 -327z" />
<glyph unicode="&#x205f;" horiz-adv-x="478" />
<glyph unicode="&#x20ac;" horiz-adv-x="1286" d="M31 492h153q2 -24 6.5 -52t20 -80.5t38 -99.5t65 -100.5t96.5 -91.5t136 -63t181 -25q83 0 163 20t134 48.5t96.5 57t63.5 48.5l20 20l-82 123q-6 -6 -18 -15t-51.5 -33t-80.5 -42.5t-102.5 -33.5t-121.5 -15q-78 0 -140 30.5t-95.5 70t-57.5 92.5t-31.5 83.5t-11.5 57.5 h499v143h-880v-143zM31 778v144h145q8 45 20 89t35 98.5t52.5 101t75.5 93t101 78.5t132 52t166 20q100 0 199 -20.5t147 -41.5l49 -20l-10 -285h-133l-27 164q-102 39 -256 39q-65 0 -118 -25t-86 -62t-58 -89.5t-37 -97t-20 -94.5h503v-144h-880z" />
<glyph unicode="&#x2122;" horiz-adv-x="1949" d="M82 1178v256h706v-256h-98l-24 139h-152v-543l133 -26v-93h-424v93l133 26v543h-151l-25 -139h-98zM872 655v93l107 26v543l-107 20v90l285 7l197 -392l202 385l271 7v-93l-103 -24v-543l103 -26v-93h-359v93l117 26v445l-190 -342l-105 -13l-182 344v-434l127 -26v-93 h-363z" />
<glyph unicode="&#x25fc;" horiz-adv-x="1085" d="M0 0v1085h1085v-1085h-1085z" />
</font>
</defs>
</svg>
