<?xml version="1.0" standalone="no"?>
<!DOCTYPE svg PUBLIC "-//W3C//DTD SVG 1.1//EN" "http://www.w3.org/Graphics/SVG/1.1/DTD/svg11.dtd" >
<svg xmlns="http://www.w3.org/2000/svg">
<metadata></metadata>
<defs>
<font id="judsonbold" horiz-adv-x="1030" >
<font-face units-per-em="2048" ascent="1638" descent="-410" />
<missing-glyph horiz-adv-x="491" />
<glyph horiz-adv-x="2048" />
<glyph horiz-adv-x="2048" />
<glyph unicode="&#xd;" horiz-adv-x="2048" />
<glyph unicode=" "  horiz-adv-x="491" />
<glyph unicode="&#x09;" horiz-adv-x="491" />
<glyph unicode="&#xa0;" horiz-adv-x="491" />
<glyph unicode="!" horiz-adv-x="481" d="M100 106q0 60 42.5 96t97.5 36q49 0 96 -34t47 -91q0 -60 -43 -96.5t-98 -36.5q-49 0 -95.5 34t-46.5 92zM104 1151q0 69 43 104t93 35t92.5 -35t42.5 -104q0 -73 -22 -267.5t-31 -256.5q-13 -98 -35.5 -151.5t-46.5 -53.5t-46.5 53.5t-35.5 151.5q-54 391 -54 524z" />
<glyph unicode="&#x22;" horiz-adv-x="727" d="M61 1270q0 44 38 68t85 24t85 -24t38 -68q0 -99 -46 -301.5t-77 -202.5t-77 203t-46 301zM420 1270q0 44 38 68t85 24t85 -24t38 -68q0 -99 -46 -301.5t-77 -202.5t-77 203t-46 301z" />
<glyph unicode="#" horiz-adv-x="1024" d="M61 401v70h195l37 258h-201v70h211l55 399h123l-55 -399h215l55 399h123l-55 -399h199v-70h-209l-37 -258h215v-70h-225l-56 -401h-123l56 401h-215l-56 -401h-123l56 401h-185zM379 471h215l37 258h-215z" />
<glyph unicode="$" horiz-adv-x="907" d="M94 115v209h45q12 -73 60 -134.5t105 -94t112 -42.5v436l-64 43q-51 35 -91 69.5t-80.5 81.5t-62.5 102.5t-22 115.5q0 120 98.5 217.5t221.5 100.5v71h82v-78q59 -10 115 -34.5t82 -43.5l26 -20l16 -225h-45q-9 65 -67.5 136.5t-126.5 104.5v-391l59 -39 q50 -33 87 -60.5t77.5 -66.5t66 -77.5t42 -88.5t16.5 -104q0 -73 -31 -133.5t-82 -99t-111 -61t-124 -27.5v-68h-82v68q-65 4 -122 19t-92 34t-60.5 37t-36.5 30zM258 967q0 -41 41.5 -82.5t116.5 -91.5v356q-78 -4 -118 -62t-40 -120zM498 53q72 12 115.5 64.5t43.5 128.5 q0 48 -41.5 93t-117.5 97v-383z" />
<glyph unicode="%" horiz-adv-x="1105" d="M59 954q0 101 80 175.5t170 74.5t170 -74.5t80 -175.5t-80 -175t-170 -74t-170 74t-80 175zM168 41l690 1116h82l-690 -1116h-82zM231 954q0 -72 22 -126t56 -54t56 54.5t22 125.5q0 72 -22 126.5t-56 54.5t-56 -54.5t-22 -126.5zM547 244q0 101 80 175.5t170 74.5 t170 -74.5t80 -175.5t-80 -175.5t-170 -74.5t-170 74.5t-80 175.5zM719 244q0 -72 22 -126.5t56 -54.5t55.5 54.5t21.5 126.5t-21.5 126t-55.5 54t-56 -54t-22 -126z" />
<glyph unicode="&#x26;" horiz-adv-x="1243" d="M39 260q0 49 19 94t45.5 78.5t73 71t84 61.5t95.5 58q-90 216 -90 348q0 65 22.5 113t53 73t73.5 40t73.5 18.5t62.5 3.5q101 0 163 -70.5t62 -163.5q0 -57 -16 -106.5t-47.5 -90.5t-65.5 -72.5t-82 -66.5q92 -227 230 -409q111 162 170 385q-17 39 -129 39v43h352v-43 q-64 0 -93.5 -9.5t-35.5 -31.5q-95 -293 -213 -445q82 -88 141 -88q76 0 107 15t63 61l25 -21q-14 -37 -29.5 -63t-39.5 -51t-60 -38t-82 -13q-113 0 -234 90q-121 -90 -268 -90q-430 0 -430 280zM279 315q0 -120 80 -184.5t186 -64.5q71 0 137 51q-156 147 -285 411 q-62 -49 -90 -96.5t-28 -116.5zM483 954q0 -87 49 -223q158 111 158 230q0 76 -25.5 131t-72.5 55q-37 0 -73 -55t-36 -138z" />
<glyph unicode="'" horiz-adv-x="368" d="M61 1270q0 44 38 68t85 24t85 -24t38 -68q0 -99 -46 -301.5t-77 -202.5t-77 203t-46 301z" />
<glyph unicode="(" horiz-adv-x="514" d="M61 645q0 148 58 303.5t145 290.5q38 59 81 106.5t69 47.5q7 0 12.5 -6.5t5.5 -16.5q0 -2 -8 -15.5t-20 -39.5t-21 -55q-33 -105 -60.5 -279t-27.5 -336t27.5 -335.5t60.5 -278.5q9 -29 21 -55.5t20 -40t8 -15.5q0 -10 -5.5 -16t-12.5 -6q-28 0 -71 47t-81 106 q-86 134 -143.5 289.5t-57.5 304.5z" />
<glyph unicode=")" horiz-adv-x="512" d="M80 -80q0 2 8 15.5t20 40t21 55.5q33 105 60.5 278.5t27.5 335.5t-27.5 336t-60.5 279q-9 29 -21 55t-20 39.5t-8 15.5q0 10 5.5 16.5t12.5 6.5q28 0 70.5 -47.5t81.5 -106.5q86 -134 143.5 -289.5t57.5 -304.5q0 -148 -58 -303.5t-145 -290.5q-38 -59 -81 -106t-69 -47 q-7 0 -12.5 6t-5.5 16z" />
<glyph unicode="*" horiz-adv-x="720" d="M82 1034q0 41 25 74t57 33q4 0 20 -4q20 -6 68.5 -56.5t56.5 -72.5q13 26 45 30q-17 12 -51.5 76t-34.5 84q0 33 25.5 52.5t64.5 19.5q38 0 64.5 -19.5t26.5 -52.5q0 -20 -35 -84t-52 -76q33 -3 46 -32q5 19 56 72t71 59q16 4 22 4q31 0 55.5 -32t24.5 -73q0 -29 -17 -51 t-47 -22q-34 0 -92 12t-71 22q2 -4 2 -12q0 -20 -19 -39q23 0 88.5 -31.5t77.5 -48.5q12 -18 12 -37q0 -34 -35 -65t-73 -31q-33 0 -51 27q-10 13 -18.5 66.5t-8.5 91.5q0 18 2 22q-11 -8 -29 -8q-14 0 -26 6q2 -6 2 -25q0 -38 -8.5 -89t-18.5 -64q-21 -27 -53 -27 q-37 0 -70.5 30t-33.5 64q0 21 12 39q12 17 75.5 47.5t86.5 32.5q-19 16 -19 39q0 2 1 6t1 6q-17 -10 -73.5 -22t-88.5 -12q-30 0 -46.5 21t-16.5 50z" />
<glyph unicode="+" horiz-adv-x="827" d="M72 598v107h288v288h107v-288h289v-107h-289v-289h-107v289h-288z" />
<glyph unicode="," horiz-adv-x="458" d="M84 88q0 61 42.5 93t82.5 32q174 0 174 -225q0 -101 -84 -178.5t-186 -83.5v73q74 18 118.5 67.5t44.5 96.5q0 43 -16 43q-2 0 -10 -6.5t-22.5 -13t-30.5 -6.5q-51 0 -82 30t-31 78z" />
<glyph unicode="-" horiz-adv-x="761" d="M111 606v90h540v-90h-540z" />
<glyph unicode="." horiz-adv-x="450" d="M84 106q0 60 42 96t97 36q49 0 96.5 -34t47.5 -91q0 -60 -43.5 -96.5t-98.5 -36.5q-49 0 -95 34t-46 92z" />
<glyph unicode="/" horiz-adv-x="970" d="M37 -20l797 1273l100 -36l-797 -1274z" />
<glyph unicode="0" horiz-adv-x="1064" d="M92 598q0 124 30 236t85 198t139 136.5t186 50.5q135 0 237 -87t153 -227t51 -307t-51 -306t-153 -225.5t-237 -86.5t-237 86.5t-152.5 225.5t-50.5 306zM356 598q0 -116 7 -207t25.5 -174t54.5 -128.5t89 -45.5t89.5 45.5t54.5 128.5t25.5 174t7.5 207q0 557 -177 557 q-53 0 -89 -45.5t-54.5 -129.5t-25.5 -174.5t-7 -207.5z" />
<glyph unicode="1" horiz-adv-x="739" d="M47 0v43q83 0 151 19t68 63v766q-112 -74 -184 -129l-14 35l364 401h88v-1073q0 -44 68 -63t151 -19v-43h-692z" />
<glyph unicode="2" horiz-adv-x="974" d="M53 0q0 35 56.5 108.5t136.5 163t160.5 186t137 202t56.5 188.5q0 56 -19.5 112.5t-59 96t-87.5 39.5q-72 0 -131 -20.5t-93.5 -49t-58.5 -57.5t-39 -49.5t-22 -20.5q-16 0 -16 21q0 16 15 49t49.5 76.5t81 82t118.5 65t154 26.5q97 0 170.5 -26.5t115.5 -71t62 -97.5 t20 -113q0 -64 -51 -151t-124 -170t-145.5 -159.5t-123.5 -137t-51 -84.5h370q15 0 29.5 7.5t23.5 14t24 26t19.5 26.5t20.5 32h41l-53 -315h-787z" />
<glyph unicode="3" horiz-adv-x="954" d="M59 147q0 62 16 86.5t58 24.5q30 0 53.5 -22t42 -53.5t40 -63.5t58 -54t85.5 -22q90 0 151.5 69t61.5 216q0 116 -43.5 189t-126.5 73h-60q-13 0 -26 8.5t-13 17.5t15 15q88 27 140 90t52 166q0 95 -47 152t-139 57q-54 0 -96 -16.5t-65.5 -40t-39.5 -47t-26.5 -40 t-18.5 -16.5q-16 0 -16 20q0 16 10.5 45.5t36 67.5t60.5 71t92 56t124 23q193 0 283 -82t90 -224q0 -136 -186 -243q98 -26 169.5 -115t71.5 -186q0 -64 -10 -116.5t-38.5 -105t-74.5 -88t-122 -57.5t-177 -22q-83 0 -159.5 20.5t-123.5 49t-74.5 55.5t-27.5 42z" />
<glyph unicode="4" horiz-adv-x="890" d="M6 358l565 840h95v-778h165v-62h-165v-274q9 -22 37.5 -31.5t91.5 -9.5v-43h-514v43q63 0 91.5 9.5t37.5 31.5v274h-404zM121 420h289v426z" />
<glyph unicode="5" horiz-adv-x="927" d="M47 147q0 62 16 86.5t58 24.5q21 0 39.5 -22t38 -53.5t46 -63.5t73.5 -54t110 -22q184 0 184 309q0 41 -3.5 72t-14.5 67t-30.5 62.5t-53.5 52t-81 41.5t-115.5 25.5t-155.5 9.5l67 516h572l-49 -176h-476l-30 -234q136 -1 245.5 -28.5t176 -70t111 -96.5t62 -103.5 t17.5 -96.5q0 -70 -10.5 -127.5t-38 -112t-71 -91.5t-114 -59.5t-163.5 -22.5q-79 0 -149 14t-116 34.5t-80 44t-49.5 43t-15.5 31.5z" />
<glyph unicode="6" horiz-adv-x="987" d="M84 459q0 116 30 223t80.5 188t113.5 148.5t132 112t133 71.5t119 33l27 -70q-147 -37 -236 -145.5t-123 -294.5q72 33 152 33q420 0 420 -373q0 -186 -113.5 -295.5t-298.5 -109.5q-198 0 -317 136t-119 343zM340 459q0 -220 45 -317t135 -97q156 0 156 356 q0 36 -0.5 55.5t-3.5 54.5t-8.5 55.5t-17.5 46.5t-28.5 40.5t-42.5 24.5t-59 10q-106 0 -166 -29q-10 -76 -10 -200z" />
<glyph unicode="7" horiz-adv-x="804" d="M25 872l77 326h689q0 -27 -55 -171.5t-121.5 -312t-121.5 -364.5t-55 -317q0 -19 -25 -36t-65 -17t-63 17.5t-23 35.5q0 83 51.5 238.5t113.5 297t113.5 270.5t51.5 165h-406q-26 0 -62.5 -39t-57.5 -93h-41z" />
<glyph unicode="8" horiz-adv-x="1011" d="M94 283q0 195 252 331q-107 82 -168 162.5t-61 173.5q0 110 105 184t276 74q399 0 399 -245q0 -106 -62.5 -187t-156.5 -137q112 -84 176 -167t64 -177q0 -119 -118 -217t-286 -98q-185 0 -302.5 86.5t-117.5 216.5zM262 266q0 -63 35.5 -113t83 -73t94.5 -23q37 0 66 4 t60.5 17t52.5 34.5t34.5 59t13.5 88.5q0 23 -8 45.5t-29 48t-37 43t-54 47.5t-55.5 43t-65.5 47q-19 14 -29 21q-162 -88 -162 -289zM332 985q0 -24 9 -47.5t31 -49.5t40.5 -45.5t57 -49.5t60 -45.5t68.5 -49.5q133 91 133 281q0 82 -60.5 127t-133.5 45q-205 0 -205 -166z " />
<glyph unicode="9" horiz-adv-x="987" d="M55 813q0 186 113.5 296t298.5 110q198 0 317 -136.5t119 -343.5q0 -116 -30 -223t-80.5 -188t-113.5 -148.5t-132 -112t-133 -71.5t-119 -33l-27 70q147 37 236 145.5t123 294.5q-71 -33 -152 -33q-420 0 -420 373zM311 797q0 -36 0.5 -55.5t3.5 -54.5t8.5 -55.5 t17.5 -46.5t28.5 -40.5t42.5 -24.5t59 -10q106 0 166 29q10 76 10 200q0 220 -45 317t-135 97q-156 0 -156 -356z" />
<glyph unicode=":" horiz-adv-x="503" d="M111 106q0 60 42 96t97 36q49 0 96 -34t47 -91q0 -60 -43 -96.5t-98 -36.5q-49 0 -95 34t-46 92zM111 782q0 60 42 95.5t97 35.5q49 0 96 -34t47 -91q0 -60 -43 -96.5t-98 -36.5q-48 0 -94.5 34.5t-46.5 92.5z" />
<glyph unicode=";" horiz-adv-x="526" d="M117 88q0 61 42.5 93t82.5 32q174 0 174 -225q0 -101 -84.5 -178.5t-186.5 -83.5v73q74 18 119 67.5t45 96.5q0 43 -16 43q-2 0 -10.5 -6.5t-23 -13t-30.5 -6.5q-51 0 -81.5 30t-30.5 78zM117 782q0 60 42 95.5t97 35.5q49 0 96 -34t47 -91q0 -60 -43 -96.5t-98 -36.5 q-48 0 -94.5 34.5t-46.5 92.5z" />
<glyph unicode="&#x3c;" horiz-adv-x="962" d="M59 600v102l775 363v-104l-641 -310l641 -309v-104z" />
<glyph unicode="=" horiz-adv-x="995" d="M125 473v111h745v-111h-745zM125 719v110h745v-110h-745z" />
<glyph unicode="&#x3e;" horiz-adv-x="962" d="M129 238v104l641 309l-641 310v104l774 -363v-102z" />
<glyph unicode="?" horiz-adv-x="872" d="M57 1016q0 47 22.5 94.5t64.5 88t109 66t148 25.5q201 0 305.5 -86t104.5 -231q0 -59 -21.5 -114t-55.5 -97t-75 -81t-82.5 -73t-75.5 -66t-55.5 -65.5t-21.5 -66.5q0 -10 -14 -19.5t-23 -9.5t-23 9.5t-14 19.5q0 54 15 101t38 80t49.5 73.5t49.5 80t38 102t15 136.5 q0 108 -46.5 177t-127.5 69q-77 0 -113.5 -45t-36.5 -101q0 -25 15.5 -52t15.5 -50q0 -34 -28.5 -62t-69.5 -28q-52 0 -79.5 33.5t-27.5 91.5zM252 106q0 60 42 96t97 36q49 0 96.5 -34t47.5 -91q0 -60 -43.5 -96.5t-98.5 -36.5q-49 0 -95 34t-46 92z" />
<glyph unicode="@" horiz-adv-x="1267" d="M84 582q0 119 32.5 222t89 178t131.5 129t162 81t179 27q95 0 178.5 -32t148.5 -93.5t102.5 -160.5t37.5 -224q0 -55 -21.5 -122t-61.5 -133t-110.5 -110.5t-156.5 -44.5q-24 0 -50 8t-51.5 32.5t-29.5 61.5q-78 -75 -162 -75q-78 0 -120 59.5t-42 144.5q0 89 44 175 t111 138t134 52q89 0 135 -84l16 61h140l-121 -456q-6 -20 6.5 -31.5t38.5 -11.5q52 0 96 40t68.5 95.5t37.5 105t13 78.5q0 110 -22.5 192t-57.5 128.5t-86.5 74.5t-99.5 37t-107 9q-98 0 -189 -35.5t-164.5 -101.5t-118 -171.5t-44.5 -234.5q0 -99 33 -186.5t87 -149.5 t121.5 -107t138 -66.5t136.5 -21.5q67 0 128.5 15t104.5 34t85.5 54t65 57.5t49.5 62.5t33 51t22 40l32 -17q-31 -70 -56 -116t-69 -100t-96 -85.5t-131.5 -53t-179.5 -21.5q-84 0 -168.5 27t-160 80t-134 125t-93 168t-34.5 202zM481 553q0 -60 14 -99.5t40 -39.5 q73 0 124.5 84t51.5 194q0 123 -74 123q-43 0 -99.5 -87.5t-56.5 -174.5z" />
<glyph unicode="A" horiz-adv-x="1159" d="M-31 0v43q63 0 92 10.5t37 32.5l398 1112h166l401 -1112q15 -43 131 -43v-43h-520v43q94 0 119 25l-115 313h-393l-107 -301q11 -20 38.5 -28.5t88.5 -8.5v-43h-336zM309 449h344l-174 477z" />
<glyph unicode="B" horiz-adv-x="1226" d="M74 0v43q63 0 91.5 9.5t37.5 31.5v1030q-9 22 -37.5 31.5t-91.5 9.5v43h489q106 0 194 -16.5t146.5 -43.5t99 -64t58.5 -77t18 -82q0 -104 -58 -178t-175 -110q152 -36 237.5 -115t85.5 -162q0 -75 -29 -137.5t-87.5 -110.5t-154 -75t-220.5 -27h-604zM463 70h143 q157 0 222 74t65 204q0 34 -8 66t-30 65.5t-56 58t-90 40.5t-127 16h-119v-524zM463 653h94q77 0 127 17.5t75.5 54t34.5 80t9 108.5q0 215 -311 215h-29v-475z" />
<glyph unicode="C" horiz-adv-x="1150" d="M74 582q0 144 54.5 266t145 202t205 124.5t236.5 44.5q60 0 148.5 -31t99.5 -31q24 0 24 41h47l17 -289h-45q-12 84 -106.5 162t-182.5 78q-171 0 -265 -142t-94 -380q0 -278 101 -428t266 -150q100 0 183 68.5t114 152.5l84 -24q-21 -51 -53 -94.5t-81.5 -84t-123.5 -64 t-164 -23.5q-111 0 -209 32.5t-170.5 90t-125 133.5t-79 164.5t-26.5 181.5z" />
<glyph unicode="D" horiz-adv-x="1255" d="M74 -2v43q63 0 91.5 9.5t37.5 31.5v1030q-9 22 -37.5 31.5t-91.5 9.5v43h471q182 0 326.5 -75t226.5 -211.5t82 -309.5q0 -174 -81.5 -312.5t-220.5 -214t-309 -75.5h-495zM463 68h106q51 0 98 17.5t90.5 58t75.5 100.5t51 151t19 203q0 139 -29 245t-80 169t-113.5 94 t-135.5 31h-82v-1069z" />
<glyph unicode="E" d="M74 0v43q63 0 91.5 9.5t37.5 31.5v1030q-9 22 -37.5 31.5t-91.5 9.5v43h846v-199h-43q0 63 -9.5 91.5t-31.5 37.5h-373v-471h235q22 9 31.5 37.5t9.5 91.5h43v-327h-43q0 63 -9.5 91.5t-31.5 37.5h-235v-518h416q49 20 92 129h41l-49 -199h-889z" />
<glyph unicode="F" horiz-adv-x="956" d="M74 0v43q63 0 91.5 9.5t37.5 31.5v1030q-9 22 -37.5 31.5t-91.5 9.5v43h846v-199h-43q0 63 -9.5 91.5t-31.5 37.5h-373v-471h235q22 9 31.5 37.5t9.5 91.5h43v-327h-43q0 63 -9.5 91.5t-31.5 37.5h-235v-504q9 -22 37.5 -31.5t91.5 -9.5v-43h-518z" />
<glyph unicode="G" horiz-adv-x="1275" d="M68 582q0 115 38.5 218t105 178t152 130.5t182 83t193.5 27.5q60 0 153.5 -31t104.5 -31t18 11.5t7 29.5h47l21 -297h-46q-12 83 -114.5 165.5t-188.5 82.5q-114 0 -203.5 -76t-137.5 -204t-48 -283q0 -143 31 -250.5t84 -168t114.5 -89.5t131.5 -29q81 0 155 19v440 q-9 22 -37.5 31.5t-91.5 9.5v43h518v-43q-63 0 -91.5 -9.5t-37.5 -31.5v-344q-15 -27 -47 -56t-82 -59t-126.5 -49.5t-163.5 -19.5q-139 0 -260.5 50.5t-203.5 134t-129.5 192.5t-47.5 225z" />
<glyph unicode="H" horiz-adv-x="1378" d="M74 0v43q63 0 91.5 9.5t37.5 31.5v1030q-9 22 -37.5 31.5t-91.5 9.5v43h518v-43q-63 0 -91.5 -9.5t-37.5 -31.5v-457h452v457q-9 22 -37.5 31.5t-91.5 9.5v43h519v-43q-63 0 -91.5 -9.5t-37.5 -31.5v-1030q9 -22 37.5 -31.5t91.5 -9.5v-43h-519v43q63 0 91.5 9.5 t37.5 31.5v504h-452v-504q9 -22 37.5 -31.5t91.5 -9.5v-43h-518z" />
<glyph unicode="I" horiz-adv-x="665" d="M74 0v43q63 0 91.5 9.5t37.5 31.5v1030q-9 22 -37.5 31.5t-91.5 9.5v43h518v-43q-63 0 -91.5 -9.5t-37.5 -31.5v-1030q9 -22 37.5 -31.5t91.5 -9.5v-43h-518z" />
<glyph unicode="J" horiz-adv-x="868" d="M2 164q0 47 29.5 85t68.5 38q35 0 69 -28t34 -64q0 -70 -51 -86q1 -1 8.5 -10.5t15 -15.5t21.5 -14t37.5 -12t54.5 -4q47 0 77 28.5t46 91.5t22 143t6 204v594q-9 22 -37.5 31.5t-91.5 9.5v43h518v-43q-63 0 -91.5 -9.5t-37.5 -31.5v-668q0 -237 -95.5 -351.5 t-295.5 -114.5q-145 0 -226 58t-81 126z" />
<glyph unicode="K" horiz-adv-x="1284" d="M74 0v43q63 0 91.5 9.5t37.5 31.5v1030q-9 22 -37.5 31.5t-91.5 9.5v43h514v-43q-63 0 -91.5 -9.5t-37.5 -31.5v-1030q9 -22 37.5 -31.5t91.5 -9.5v-43h-514zM469 643l502 498q-28 14 -105 14v43h322v-43q-18 0 -33 -1.5t-27 -5t-19.5 -6t-16.5 -8.5t-12 -8.5t-10.5 -9.5 t-8.5 -8l-373 -367l514 -665q26 -33 129 -33v-43h-471v43q49 0 76 6z" />
<glyph unicode="L" horiz-adv-x="1019" d="M74 0v43q63 0 91.5 9.5t37.5 31.5v1030q-9 22 -37.5 31.5t-91.5 9.5v43h518v-43q-63 0 -91.5 -9.5t-37.5 -31.5v-1044h426q49 20 92 129h41l-49 -199h-899z" />
<glyph unicode="M" horiz-adv-x="1765" d="M74 0v43q63 0 91.5 9.5t37.5 31.5v1030q-9 22 -37.5 31.5t-91.5 9.5v43h370l437 -952l436 952h375v-43q-63 0 -91.5 -9.5t-37.5 -31.5v-1030q9 -22 37.5 -31.5t91.5 -9.5v-43h-518v43q63 0 91.5 9.5t37.5 31.5v920l-459 -1004h-103l-469 1016v-932q9 -22 37.5 -31.5 t91.5 -9.5v-43h-327z" />
<glyph unicode="N" horiz-adv-x="1275" d="M74 0v43q63 0 91.5 9.5t37.5 31.5v1030q-9 22 -37.5 31.5t-91.5 9.5v43h346l606 -829v745q-9 22 -37.5 31.5t-91.5 9.5v43h328v-43q-63 0 -91.5 -9.5t-37.5 -31.5v-1114h-90l-734 1014v-930q9 -22 37.5 -31.5t91.5 -9.5v-43h-327z" />
<glyph unicode="O" horiz-adv-x="1359" d="M72 598q0 123 48 237.5t129 198.5t194 134.5t237 50.5t237 -50.5t194 -134.5t129 -198.5t48 -237.5q0 -164 -81.5 -306.5t-222 -227t-304.5 -84.5q-167 0 -307.5 84.5t-220.5 226.5t-80 307zM348 614q0 -80 10.5 -156t36 -151.5t63 -131.5t97 -91t133.5 -35 q91 0 157.5 48.5t101 130t50 169t15.5 185.5q0 101 -18.5 196t-56.5 181t-106.5 138t-158.5 52q-74 0 -132 -33.5t-93 -86t-58 -125t-32 -143t-9 -147.5z" />
<glyph unicode="P" horiz-adv-x="1157" d="M74 0v43q63 0 91.5 9.5t37.5 31.5v1030q-9 22 -37.5 31.5t-91.5 9.5v43h544q131 0 234.5 -29t163 -75.5t89.5 -99.5t30 -107q0 -154 -123 -248t-369 -94h-180v-461q9 -22 37.5 -31.5t91.5 -9.5v-43h-518zM463 614h108q157 0 222 63t65 208q0 243 -311 243h-84v-514z" />
<glyph unicode="Q" horiz-adv-x="1359" d="M72 598q0 123 48 237.5t129 198.5t194 134.5t237 50.5t237 -50.5t194 -134.5t129 -198.5t48 -237.5q0 -169 -87 -314.5t-230 -226.5q5 -12 16.5 -41.5t16.5 -41.5t16 -34t19.5 -31.5t21 -22t27 -17t32.5 -4.5q31 0 59.5 9.5t46.5 23.5t32 28t20 24l6 9l31 -22 q-2 -6 -7 -16t-22.5 -35t-38.5 -44t-55 -35t-72 -16q-72 0 -128.5 16t-95 46.5t-62.5 62t-46 74.5q-58 -10 -108 -10q-167 0 -307.5 84.5t-220.5 226.5t-80 307zM348 614q0 -234 84 -395q80 80 193 80q192 0 286 -131q101 145 101 414q0 101 -18.5 196t-56.5 181t-106.5 138 t-158.5 52q-74 0 -132 -33.5t-93 -86t-58 -125t-32 -143t-9 -147.5zM465 166q86 -117 223 -117q43 0 70 8q-16 36 -22 49t-21.5 38.5t-27.5 35.5t-32 19.5t-43 9.5q-82 0 -147 -43z" />
<glyph unicode="R" horiz-adv-x="1206" d="M74 0v43q63 0 91.5 9.5t37.5 31.5v1030q-9 22 -37.5 31.5t-91.5 9.5v43h504q131 0 234 -27.5t162.5 -73t89.5 -97t30 -105.5q0 -113 -67.5 -198.5t-201.5 -123.5l273 -487q21 -43 135 -43v-43h-88q-162 0 -238.5 18.5t-115.5 87.5l-248 439h-80v-461q9 -22 37.5 -31.5 t91.5 -9.5v-43h-518zM463 614h67q138 0 212.5 62.5t74.5 216.5q0 119 -83 177t-228 58h-43v-514z" />
<glyph unicode="S" horiz-adv-x="962" d="M94 0v324h45q12 -63 52 -117t91.5 -87t105.5 -52t99 -19q102 0 165 54t63 143q0 30 -19 60t-61 62t-75.5 53.5t-96 58t-88.5 52.5q-279 172 -279 369q0 79 51 153t134.5 119.5t173.5 45.5q60 0 148 -31t99 -31t18 11.5t7 29.5h47l21 -309h-45q-12 85 -110.5 172.5 t-182.5 87.5q-64 0 -108.5 -32t-61.5 -71.5t-17 -78.5q0 -22 15.5 -45.5t37 -43.5t60 -46t68 -43t78 -45.5t73.5 -43.5q67 -41 115 -78t93.5 -85.5t69 -107.5t23.5 -126q0 -78 -36 -141.5t-94.5 -102t-129 -59t-143.5 -20.5q-74 0 -143.5 15t-113.5 30.5t-57 15.5t-29 -12 t-16 -29h-47z" />
<glyph unicode="T" horiz-adv-x="1112" d="M27 999v199h1058v-199h-43q0 100 -71 129h-285v-1044q9 -22 37.5 -31.5t91.5 -9.5v-43h-518v43q63 0 91.5 9.5t37.5 31.5v1044h-285q-71 -29 -71 -129h-43z" />
<glyph unicode="U" horiz-adv-x="1236" d="M37 1155v43h518v-43q-63 0 -91.5 -9.5t-37.5 -31.5v-635q0 -210 72 -320t211 -110q134 0 213 112.5t79 305.5v647q-9 22 -37.5 31.5t-91.5 9.5v43h328v-43q-63 0 -91.5 -9.5t-37.5 -31.5v-606q0 -137 -33.5 -241t-92 -165t-131 -91.5t-157.5 -30.5q-491 0 -491 528v606 q-9 22 -37.5 31.5t-91.5 9.5z" />
<glyph unicode="V" horiz-adv-x="1159" d="M-35 1155v43h520v-43q-93 0 -118 -25l313 -858l301 846q-11 20 -38.5 28.5t-88.5 8.5v43h336v-43q-63 0 -92 -10.5t-37 -32.5l-397 -1112h-166l-402 1112q-15 43 -131 43z" />
<glyph unicode="W" horiz-adv-x="1837" d="M-35 1155v43h520v-43q-93 0 -118 -25l313 -856l197 555l-101 283q-15 43 -131 43v43h520v-43q-93 0 -118 -25l313 -858l301 846q-11 20 -38.5 28.5t-88.5 8.5v43h336v-43q-63 0 -92 -10.5t-37 -32.5l-398 -1112h-169l-256 715l-254 -715h-170l-398 1112q-15 43 -131 43z " />
<glyph unicode="X" horiz-adv-x="1095" d="M-8 1155v43h520v-43q-97 0 -119 -25l209 -366l246 360q-19 31 -123 31v43h336v-43q-62 0 -89.5 -9t-41.5 -32l-287 -420l348 -608q22 -43 131 -43v-43h-520v43q97 0 119 25l-229 403l-273 -399q23 -29 123 -29v-43h-336v43q62 0 90 9t41 30l314 459l-328 573 q-24 41 -131 41z" />
<glyph unicode="Y" horiz-adv-x="1196" d="M-33 1155v43h520v-43q-96 0 -118 -25l317 -555l328 543q-21 37 -127 37v43h336v-43q-101 0 -117 -27l-369 -612v-432q9 -22 37.5 -31.5t91.5 -9.5v-43h-518v43q63 0 91.5 9.5t37.5 31.5v367l-379 663q-23 41 -131 41z" />
<glyph unicode="Z" horiz-adv-x="1007" d="M29 0l579 1137h-395q-24 -10 -48 -60t-24 -110h-43v231h826l-580 -1137h455q24 10 64.5 69.5t58.5 119.5h43l-52 -250h-884z" />
<glyph unicode="[" horiz-adv-x="567" d="M125 -319v1579h401v-74h-166v-1432h166v-73h-401z" />
<glyph unicode="\" horiz-adv-x="970" d="M37 1217l100 36l797 -1273l-100 -37z" />
<glyph unicode="]" horiz-adv-x="567" d="M41 -246h166v1432h-166v74h401v-1579h-401v73z" />
<glyph unicode="^" horiz-adv-x="933" d="M102 721l336 401h56l337 -401l-69 -90l-295 352l-295 -352z" />
<glyph unicode="_" horiz-adv-x="933" d="M94 -102h746v-91h-746v91z" />
<glyph unicode="`" horiz-adv-x="614" d="M123 1356h258l111 -332h-95z" />
<glyph unicode="a" d="M51 229q0 33 16.5 62t43 50.5t67 41t80.5 32.5t93 27t95.5 23t96 21t86.5 20q0 78 -3 125.5t-12.5 94t-28.5 70t-51.5 38t-80.5 14.5q-68 0 -122.5 -27.5t-64.5 -70.5q47 0 47 -84q0 -35 -34.5 -53.5t-73.5 -18.5q-41 0 -73 29t-32 73q0 105 104 165.5t269 60.5 q194 0 303 -97.5t109 -246.5v-406q0 -65 21.5 -96t51.5 -31q27 0 48.5 14t21.5 35h37q0 -110 -225 -110q-105 0 -162 73q-120 -77 -285 -77q-69 0 -126.5 11.5t-108 38.5t-79 77.5t-28.5 121.5zM313 225q0 -94 40 -135t91 -41q40 0 97.5 16t107.5 41q-20 55 -20 123v232 q-136 -41 -179 -61q-137 -64 -137 -175z" />
<glyph unicode="b" horiz-adv-x="1132" d="M-12 1155v47q39 0 188.5 44t196.5 44v-418q93 58 229 58q53 0 110.5 -13t123 -47.5t116.5 -85.5t85 -136.5t34 -192.5q0 -92 -28 -170t-76.5 -133.5t-113.5 -94.5t-140 -58t-156 -19q-138 0 -227 65q-159 -65 -213 -65v1167q-110 8 -129 8zM373 86q72 -37 172 -37 q111 0 185.5 106.5t74.5 299.5q0 185 -58.5 295t-164.5 110q-127 0 -209 -53v-721z" />
<glyph unicode="c" horiz-adv-x="985" d="M63 496q0 114 59.5 211t170 156t248.5 59q166 0 267 -56.5t101 -160.5q0 -50 -25 -83.5t-77 -33.5q-49 0 -79 24t-30 62q0 43 21.5 63.5t50.5 20.5q-26 102 -209 102q-97 0 -164 -97.5t-67 -258.5q0 -118 31.5 -219t93.5 -164.5t141 -63.5q90 0 151.5 34.5t108.5 113.5 l76 -37q-60 -97 -154.5 -142.5t-251.5 -45.5q-61 0 -120.5 13.5t-123 49.5t-111 92t-78 149t-30.5 212z" />
<glyph unicode="d" horiz-adv-x="1181" d="M63 455q0 114 41 206.5t111.5 150t160.5 88t191 30.5q119 0 201 -49v266q-110 8 -129 8v47q39 0 188 44t197 44v-1167q110 -8 129 -8v-47q-39 0 -188 -44t-197 -44v67q-96 -67 -246 -67q-43 0 -90 9.5t-100 30t-100 58.5t-85.5 88t-61 124.5t-22.5 164.5zM330 455 q0 -170 67.5 -288t145.5 -118q140 0 225 66v700q-76 45 -188 45q-41 0 -84 -26.5t-80.5 -75.5t-61.5 -128.5t-24 -174.5z" />
<glyph unicode="e" horiz-adv-x="1026" d="M63 496q0 177 126.5 301.5t326.5 124.5q112 0 201 -35t145 -95t85.5 -136t29.5 -162h-647q2 -115 36.5 -214.5t98 -161t141.5 -61.5q92 0 159.5 31t127.5 105l49 -25q-60 -97 -154.5 -142.5t-250.5 -45.5q-62 0 -122 13.5t-125.5 49.5t-114.5 92t-80.5 149t-31.5 212z M332 557h373q-6 69 -16.5 120t-29.5 94.5t-51 66t-76 22.5q-74 0 -132 -74.5t-68 -228.5z" />
<glyph unicode="f" horiz-adv-x="616" d="M43 0v43q63 0 91.5 9.5t37.5 31.5v756h-102v61h102v70q0 87 24 150.5t68 99.5t97.5 52.5t119.5 16.5q121 0 183.5 -37.5t62.5 -83.5q0 -40 -19.5 -66t-62.5 -26q-40 0 -60 15.5t-24.5 38t-6.5 45t-13.5 38t-38.5 15.5q-74 0 -74 -230v-98h158v-61h-158v-756 q9 -22 37.5 -31.5t91.5 -9.5v-43h-514z" />
<glyph unicode="g" horiz-adv-x="1099" d="M66 446q0 115 39.5 207t107.5 150t156.5 88.5t189.5 30.5q131 0 221 -62q151 62 203 62v-863q0 -204 -120 -336.5t-318 -132.5q-188 0 -299 49t-111 132q0 131 111 131q41 0 67.5 -28.5t26.5 -68.5q0 -38 -11.5 -56.5t-39.5 -29.5q10 -10 32 -21t77.5 -22.5t125.5 -11.5 q95 0 143.5 81.5t57.5 279.5q-85 -45 -211 -45q-43 0 -89 9t-98 28.5t-97.5 56t-83 85.5t-59 123t-21.5 164zM332 446q0 -97 15 -171.5t36.5 -116t51 -67.5t53 -34t47.5 -8q112 0 192 41v43v690q-67 29 -156 29q-37 0 -68.5 -10t-64 -37.5t-55 -71.5t-37 -117.5 t-14.5 -169.5z" />
<glyph unicode="h" horiz-adv-x="1220" d="M29 0v43q63 0 91.5 9.5t37.5 31.5v1063q-110 8 -129 8v47q39 0 188 44t197 44v-448q123 80 243 80q203 0 307.5 -66t104.5 -217v-555q9 -22 37.5 -31.5t91.5 -9.5v-43h-514v43q63 0 91.5 9.5t37.5 31.5v506q0 142 -42 202t-126 60q-123 0 -231 -74v-694q9 -22 37.5 -31.5 t91.5 -9.5v-43h-514z" />
<glyph unicode="i" horiz-adv-x="591" d="M49 0v43q63 0 91.5 9.5t37.5 31.5v694q-106 8 -129 8v48q39 0 188 44t197 44v-838q9 -22 37.5 -31.5t91.5 -9.5v-43h-514zM152 1174q0 43 46 79.5t97 36.5q49 0 99 -36.5t50 -86.5q0 -43 -46 -78.5t-97 -35.5q-50 0 -99.5 35.5t-49.5 85.5z" />
<glyph unicode="j" horiz-adv-x="528" d="M-180 -229q0 44 25 75t73 31q43 0 66.5 -31.5t23.5 -72.5q0 -29 -20 -49q0 -70 78 -70q39 0 64.5 58.5t25.5 170.5v897q-106 8 -129 8v48q39 0 188 44t197 44v-1012q0 -86 -30.5 -150.5t-81 -100t-104.5 -52.5t-110 -17q-130 0 -198 45.5t-68 133.5zM129 1176 q0 43 45.5 79.5t95.5 36.5t101 -36.5t51 -86.5q0 -43 -47.5 -78.5t-98.5 -35.5q-49 0 -98 35.5t-49 85.5z" />
<glyph unicode="k" horiz-adv-x="1126" d="M29 0v43q63 0 91.5 9.5t37.5 31.5v1063q-110 8 -129 8v47q39 0 188 44t197 44v-1206q9 -22 37.5 -31.5t91.5 -9.5v-43h-514zM428 520l363 326q-30 12 -101 12v43h322v-43q-81 0 -111 -27l-248 -221l381 -528q15 -22 43 -30.5t86 -8.5v-43h-471v43q51 0 78 6z" />
<glyph unicode="l" horiz-adv-x="571" d="M29 0v43q63 0 91.5 9.5t37.5 31.5v1063q-110 8 -129 8v47q39 0 188 44t197 44v-1206q9 -22 37.5 -31.5t91.5 -9.5v-43h-514z" />
<glyph unicode="m" horiz-adv-x="1794" d="M49 0v43q63 0 91.5 9.5t37.5 31.5v694q-110 8 -129 8v48q39 0 188 44t197 44v-72q83 72 211 72q274 0 359 -115q92 115 251 115q95 0 165 -22t125 -74t82.5 -144.5t27.5 -226.5v-371q9 -22 37.5 -31.5t91.5 -9.5v-43h-514v43q63 0 91.5 9.5t37.5 31.5v397q0 191 -34 281 t-122 90q-111 0 -209 -102q10 -29 10 -78v-588q9 -22 38 -31.5t92 -9.5v-43h-515v43q63 0 91.5 9.5t37.5 31.5v469q0 167 -36.5 233t-118.5 66q-88 0 -199 -98v-670q9 -22 37.5 -31.5t91.5 -9.5v-43h-514z" />
<glyph unicode="n" horiz-adv-x="1222" d="M49 0v43q63 0 91.5 9.5t37.5 31.5v694q-110 8 -129 8v48q39 0 188 44t197 44v-86q102 86 225 86q198 0 306 -73t108 -218v-547q9 -22 37.5 -31.5t91.5 -9.5v-43h-514v43q63 0 91.5 9.5t37.5 31.5v561q0 91 -42 149t-128 58q-127 0 -213 -82v-686q9 -22 37.5 -31.5 t91.5 -9.5v-43h-514z" />
<glyph unicode="o" horiz-adv-x="1116" d="M63 467q0 93 29.5 173.5t87.5 144.5t154 100.5t219 36.5q243 0 371.5 -129.5t128.5 -350.5q0 -93 -29 -174.5t-86.5 -147t-152.5 -103t-218 -37.5q-232 0 -368 134.5t-136 352.5zM332 508q0 -243 65 -355t197 -112q92 0 141 97t49 257q0 251 -58 357t-208 106 q-59 0 -102 -50t-63.5 -128t-20.5 -172z" />
<glyph unicode="p" horiz-adv-x="1173" d="M29 -350q63 0 91.5 9.5t37.5 31.5v1085q-128 10 -129 10v48q39 0 188 44t197 44v-56q92 56 225 56q73 0 137.5 -13.5t127 -47t106.5 -86t71 -137t27 -192.5q0 -232 -134 -349t-380 -117q-104 0 -180 34v-323q9 -22 37.5 -31.5t91.5 -9.5v-43h-514v43zM414 80 q76 -31 168 -31q111 0 185.5 103.5t74.5 293.5q0 77 -25 168.5t-78.5 164.5t-120.5 73q-125 0 -204 -51v-721z" />
<glyph unicode="q" horiz-adv-x="1122" d="M61 446q0 114 42.5 206.5t115 150.5t164 88.5t192.5 30.5q134 0 224 -62q151 62 207 62v-1231q9 -22 37.5 -31.5t91.5 -9.5v-43h-514v43q63 0 91.5 9.5t37.5 31.5v338q-86 -49 -220 -49q-53 0 -110.5 12t-123.5 45t-116.5 83t-84.5 135t-34 191zM328 446 q0 -184 58.5 -290.5t164.5 -106.5q118 0 199 45v727q-76 31 -162 31q-111 0 -185.5 -106.5t-74.5 -299.5z" />
<glyph unicode="r" horiz-adv-x="892" d="M49 0v43q63 0 91.5 9.5t37.5 31.5v694q-110 8 -129 8v48q39 0 188 44t197 44v-86q105 86 203 86q136 0 195 -35t59 -88q0 -48 -29.5 -77.5t-73.5 -29.5q-38 0 -61 16.5t-32.5 40t-17 47t-23 40t-42.5 16.5q-36 0 -85 -24t-93 -62v-682q9 -22 37.5 -31.5t91.5 -9.5v-43 h-514z" />
<glyph unicode="s" horiz-adv-x="813" d="M78 313h45q14 -53 68 -113t119.5 -99.5t111.5 -39.5q139 0 139 127q0 25 -26 50t-68 47.5t-92.5 47.5t-101.5 57.5t-93 71t-68 93.5t-26 119q0 115 87 181.5t208 66.5q52 0 100 -15.5t80.5 -31t46.5 -15.5q11 0 18 11.5t7 29.5h47l20 -299h-45q-21 86 -106 168t-162 82 q-66 0 -105.5 -27t-39.5 -80q0 -23 28 -48t73 -49.5t99 -52t108 -62t99 -73.5t73 -92.5t28 -113.5q0 -127 -96 -200.5t-248 -73.5q-54 0 -104 15t-83 30.5t-47 15.5q-11 0 -18 -11.5t-7 -29.5h-49z" />
<glyph unicode="t" horiz-adv-x="724" d="M14 840v61q121 0 211 91t90 206h111v-297h176v-61h-176v-652q0 -64 23 -97.5t83 -33.5q36 0 74.5 36.5t52.5 99.5l50 -25q-44 -188 -246 -188q-159 0 -232 72.5t-73 238.5v549h-144z" />
<glyph unicode="u" horiz-adv-x="1167" d="M20 858v43h386v-645q0 -42 1.5 -66t9.5 -55t23.5 -47t44.5 -27.5t72 -11.5q103 0 197 55v713q-9 22 -37.5 31.5t-91.5 9.5v43h385v-778q110 -8 129 -8v-47q-39 0 -188 -44t-197 -44v59q-102 -59 -209 -59q-395 0 -395 290v547q-9 22 -38 31.5t-92 9.5z" />
<glyph unicode="v" horiz-adv-x="1032" d="M-25 858v43h469v-43q-59 0 -86 -8l244 -600l234 586q-28 22 -115 22v43h336v-43q-113 0 -129 -41l-326 -817h-172l-326 817q-9 22 -37.5 31.5t-91.5 9.5z" />
<glyph unicode="w" horiz-adv-x="1671" d="M-25 858v43h469v-43q-59 0 -86 -8l244 -600l184 461l-43 106q-9 22 -37.5 31.5t-91.5 9.5v43h469v-43q-59 0 -86 -8l244 -600l234 586q-28 22 -115 22v43h336v-43q-105 0 -125 -33l-330 -825h-172l-233 586l-234 -586h-172l-326 817q-9 22 -37.5 31.5t-91.5 9.5z" />
<glyph unicode="x" horiz-adv-x="993" d="M2 0v43q63 0 93.5 9.5t45.5 31.5l250 334l-256 411q-10 17 -36.5 23t-82.5 6v43h469v-43q-49 0 -79 -6l141 -227l166 221q-27 12 -99 12v43h330v-43q-63 0 -93 -9t-44 -30l-209 -276l293 -471q10 -17 37.5 -23t83.5 -6v-43h-469v43q51 0 78 6l-179 287l-209 -281 q27 -12 99 -12v-43h-330z" />
<glyph unicode="y" horiz-adv-x="1032" d="M-25 858v43h469v-43q-59 0 -86 -8l244 -600l234 586q-28 22 -115 22v43h336v-43q-112 0 -125 -33l-414 -1034q-20 -50 -48.5 -85.5t-59 -52t-56.5 -23.5t-51 -7q-149 0 -149 98q0 36 23 59t67 23q22 0 36.5 -9.5t21 -21t20.5 -21t34 -9.5q45 0 58 37l53 131l-363 907 q-9 22 -37.5 31.5t-91.5 9.5z" />
<glyph unicode="z" horiz-adv-x="847" d="M25 0l475 840h-295q-27 -11 -49.5 -48.5t-22.5 -95.5h-43v205h709l-475 -840h344q26 11 48.5 51t22.5 99h43v-211h-757z" />
<glyph unicode="{" horiz-adv-x="563" d="M29 428v47q78 0 115.5 26.5t37.5 96.5q0 34 -9 205.5t-9 224.5q0 77 88.5 133t261.5 56v-48q-76 0 -106.5 -25.5t-30.5 -96.5q0 -34 11 -206t11 -225q0 -45 -57 -90t-137 -73q79 -28 136.5 -73.5t57.5 -90.5q0 -53 -11 -225.5t-11 -206.5q0 -71 30.5 -96t106.5 -25v-49 q-173 0 -261.5 55.5t-88.5 132.5q0 53 9 225.5t9 206.5q0 70 -37 95.5t-116 25.5z" />
<glyph unicode="|" horiz-adv-x="362" d="M129 -61v1392h104v-1392h-104z" />
<glyph unicode="}" horiz-adv-x="563" d="M49 -264q76 0 106.5 25t30.5 96q0 34 -11 206.5t-11 225.5q0 45 57.5 90.5t136.5 73.5q-80 28 -137 73t-57 90q0 53 11 225t11 206q0 71 -30.5 96.5t-106.5 25.5v48q173 0 261.5 -56t88.5 -133q0 -53 -9 -224.5t-9 -205.5q0 -70 37.5 -96.5t116.5 -26.5v-47 q-79 0 -116.5 -25.5t-37.5 -95.5q0 -34 9 -206.5t9 -225.5q0 -77 -88.5 -132.5t-261.5 -55.5v49z" />
<glyph unicode="~" horiz-adv-x="1083" d="M106 426q0 270 209 270q60 0 252.5 -60.5t229.5 -60.5q80 0 107.5 26t27.5 95h53q0 -270 -211 -270q-60 0 -251 60.5t-228 60.5q-80 0 -107.5 -26t-27.5 -95h-54z" />
<glyph unicode="&#xa1;" horiz-adv-x="481" d="M98 952q0 60 43.5 96.5t98.5 36.5q48 0 94.5 -34.5t46.5 -92.5q0 -60 -42 -95.5t-97 -35.5q-49 0 -96.5 34t-47.5 91zM106 -86q0 73 22 265.5t32 258.5q13 98 35.5 151.5t46.5 53.5t46.5 -53.5t35.5 -151.5q11 -83 32 -267t21 -257q0 -69 -42.5 -104t-92.5 -35t-93 35 t-43 104z" />
<glyph unicode="&#xa2;" horiz-adv-x="966" d="M63 496q0 86 32 163t90 135.5t145 93t190 34.5h31l45 256l94 -19l-43 -248q211 -39 211 -206q0 -46 -24 -74.5t-64 -28.5q-37 0 -64.5 18.5t-27.5 53.5q0 43 21.5 63.5t50.5 20.5q-20 74 -113 94l-137 -778q39 -17 75 -17q92 0 159.5 31t127.5 105l49 -25 q-60 -97 -154.5 -142.5t-250.5 -45.5h-23l-43 -242l-96 18l43 238q-65 16 -119.5 49.5t-102.5 91t-75 150t-27 211.5zM309 504q0 -106 28 -202t77 -159l127 717q-232 0 -232 -356z" />
<glyph unicode="&#xa3;" horiz-adv-x="1087" d="M57 168q0 58 56 111t116 53q44 0 103 -19q0 61 -15.5 184.5t-17.5 209.5h-119v90h121q17 422 311 422q136 0 222 -47t86 -132q0 -37 -27.5 -59.5t-61.5 -22.5q-32 0 -55.5 22.5t-23.5 57.5q0 29 20 49q0 34 -37 52t-80 18q-58 0 -78 -76t-22 -284h166v-90h-164 q2 -49 10 -159t8 -183q0 -82 -28 -158q78 -29 153 -29q90 0 155 14t90.5 30t42.5 30t22 14q20 0 20 -24q0 -7 -7.5 -27t-22 -50t-40.5 -61t-59.5 -58t-84 -44.5t-107.5 -17.5q-126 0 -240 96q-90 -100 -207 -100q-99 0 -152 55.5t-53 132.5zM127 166q0 -52 36 -84.5 t91 -32.5q33 0 51.5 36.5t24.5 127.5q-56 49 -101 49q-39 0 -70.5 -28.5t-31.5 -67.5z" />
<glyph unicode="&#xa4;" d="M100 193l111 108q-80 108 -80 236q0 130 84 239l-115 113l66 65l113 -114q106 82 237 82q128 0 236 -80l110 112l66 -65l-111 -111q84 -105 84 -241q0 -132 -82 -238l109 -106l-66 -66l-106 109q-109 -84 -240 -84q-137 0 -242 84l-108 -109zM223 537q0 -121 85.5 -207 t207.5 -86t207.5 86t85.5 207t-85.5 206.5t-207.5 85.5t-207.5 -85.5t-85.5 -206.5z" />
<glyph unicode="&#xa5;" horiz-adv-x="1144" d="M45 1155v43h469v-43q-59 0 -86 -8l229 -563l217 549q-28 22 -114 22v43h336v-43q-113 0 -127 -39l-267 -665h162v-91h-174v-114h174v-90h-174v-72q9 -22 37.5 -31.5t91.5 -9.5v-43h-446v43q63 0 91.5 9.5t37.5 31.5v72h-178v90h178v47l-27 67h-151v91h114l-264 663 q-9 22 -37.5 31.5t-91.5 9.5z" />
<glyph unicode="&#xa6;" horiz-adv-x="374" d="M135 -61v589h105v-589h-105zM135 741v590h105v-590h-105z" />
<glyph unicode="&#xa7;" horiz-adv-x="823" d="M74 430q0 244 190 315q-66 72 -101.5 135t-35.5 128q0 101 89 157t233 56q92 0 169.5 -73.5t77.5 -127.5q0 -34 -18 -58t-51 -24q-29 0 -51.5 23t-22.5 51q0 61 -32.5 114.5t-88.5 53.5q-63 0 -91 -24.5t-28 -98.5q0 -34 45 -94t109.5 -128.5t128.5 -141t109 -150 t45 -137.5q0 -245 -191 -316q66 -73 101.5 -135t35.5 -127q0 -102 -88.5 -157.5t-232.5 -55.5q-92 0 -170 73.5t-78 127.5q0 33 18.5 57.5t51.5 24.5q29 0 51 -23t22 -51q0 -61 32.5 -114.5t88.5 -53.5q63 0 91 24.5t28 98.5q0 34 -45 94t-109 128.5t-128 141t-109 150 t-45 137.5zM248 549q0 -50 18 -99t56 -99t70.5 -85.5t85.5 -89.5l24 -24q73 40 73 135q0 50 -18 99.5t-56.5 99.5t-70.5 86t-86 90l-22 22q-74 -41 -74 -135z" />
<glyph unicode="&#xa8;" horiz-adv-x="823" d="M96 1145q0 49 36 85t85 36t84 -35.5t35 -85.5t-35 -85.5t-84 -35.5t-85 36t-36 85zM487 1145q0 50 35 85.5t84 35.5q50 0 85.5 -36t35.5 -85t-35.5 -85t-85.5 -36q-49 0 -84 35.5t-35 85.5z" />
<glyph unicode="&#xa9;" horiz-adv-x="1302" d="M86 549q0 153 76 283t206 206t283 76t283.5 -76t206.5 -206t76 -283t-76 -283t-206.5 -206t-283.5 -76t-283 76t-206 206t-76 283zM141 549q0 -138 68.5 -255.5t186 -186t255.5 -68.5t255.5 68.5t186 186t68.5 255.5t-68.5 255.5t-186 186t-255.5 68.5t-255.5 -68.5 t-186 -186t-68.5 -255.5zM350 549q0 72 20 129.5t53 94t77.5 61.5t91.5 35t98 10q27 0 52.5 -7.5t41.5 -15.5t19 -8q2 0 2 20h45l12 -174h-41q-15 53 -42.5 84t-86.5 31q-84 0 -129 -63t-45 -175q0 -135 49 -199.5t127 -64.5q53 0 89.5 32t52.5 75l63 -27 q-58 -149 -225 -149q-150 0 -237 84.5t-87 226.5z" />
<glyph unicode="&#xaa;" horiz-adv-x="823" d="M115 264v53h608v-53h-608zM115 567q0 28 21.5 50.5t65.5 38t80 25t97 21t84 17.5q0 105 -19.5 146.5t-87.5 41.5q-41 0 -73.5 -14.5t-38.5 -38.5q28 0 28 -47q0 -20 -20.5 -29.5t-44.5 -9.5q-25 0 -43.5 15.5t-18.5 39.5q0 57 62.5 91t161.5 34q117 0 182 -53t65 -135 v-223q0 -35 13 -52.5t30 -17.5q16 0 29.5 8t13.5 19h21q0 -62 -135 -62q-60 0 -96 41q-80 -43 -170 -43q-41 0 -75.5 6.5t-65.5 21t-48.5 42.5t-17.5 67zM272 565q0 -51 24.5 -73.5t55.5 -22.5q56 0 123 31q-12 27 -12 67v127q-5 -1 -28 -7.5t-30 -8.5t-27.5 -8.5t-28.5 -11 t-23.5 -12.5t-22.5 -15.5t-15.5 -17.5t-12 -22t-3.5 -26z" />
<glyph unicode="&#xab;" horiz-adv-x="899" d="M68 612q0 47 34 66l357 225v-86l-205 -205l205 -204v-86l-357 225q-34 22 -34 65zM395 612q0 46 35 66l356 225v-86l-204 -205l204 -204v-86l-356 225q-17 11 -26 30t-9 35z" />
<glyph unicode="&#xac;" horiz-adv-x="851" d="M125 606v90h598v-270h-86v180h-512z" />
<glyph unicode="&#xad;" horiz-adv-x="761" d="M111 606v90h540v-90h-540z" />
<glyph unicode="&#xae;" horiz-adv-x="1302" d="M86 549q0 153 76 283t206 206t283 76t283.5 -76t206.5 -206t76 -283t-76 -283t-206.5 -206t-283.5 -76t-283 76t-206 206t-76 283zM141 549q0 -138 68.5 -255.5t186 -186t255.5 -68.5t255.5 68.5t186 186t68.5 255.5t-68.5 255.5t-186 186t-255.5 68.5t-255.5 -68.5 t-186 -186t-68.5 -255.5zM365 250v41q54 0 63 14v510q-6 12 -63 12v41h258q133 0 207.5 -48.5t74.5 -110.5q0 -59 -33 -102.5t-96 -65.5l131 -234q3 -9 13 -12.5t38 -3.5v-41h-53q-76 0 -108.5 11t-53.5 48l-120 213h-48v-217q6 -14 64 -14v-41h-274zM575 578h43 q132 0 132 129q0 49 -39.5 78.5t-104.5 29.5h-31v-237z" />
<glyph unicode="&#xaf;" horiz-adv-x="786" d="M123 1053v110h541v-110h-541z" />
<glyph unicode="&#xb0;" horiz-adv-x="606" d="M70 1057q0 95 69 164t164 69t164.5 -69t69.5 -164t-69.5 -163.5t-164.5 -68.5t-164 68.5t-69 163.5zM154 1057q0 -61 43.5 -104.5t105.5 -43.5t106 43.5t44 104.5t-44 105t-106 44q-61 0 -105 -44t-44 -105z" />
<glyph unicode="&#xb1;" horiz-adv-x="835" d="M125 274v91h586v-91h-586zM125 713v90h248v207h90v-207h248v-90h-248v-207h-90v207h-248z" />
<glyph unicode="&#xb2;" horiz-adv-x="720" d="M66 573v11q0 20 38.5 62t93.5 95t110 113.5t93.5 132t38.5 135.5q0 56 -28 91.5t-80 35.5q-58 0 -99 -13.5t-60.5 -32.5t-32 -38.5t-21.5 -33t-19 -13.5q-20 0 -20 23q0 14 8.5 37.5t29.5 54t50 57t76.5 44.5t103.5 18q136 0 201 -56.5t65 -154.5q0 -55 -47.5 -126.5 t-104 -126t-115.5 -109t-71 -70.5h254q20 7 30 12t25.5 19.5t22.5 35.5h45l-57 -203h-530z" />
<glyph unicode="&#xb3;" horiz-adv-x="708" d="M68 688q0 46 12.5 65t44.5 19q19 0 31 -15t21.5 -36t24 -42.5t46.5 -36.5t80 -15q70 0 108.5 52.5t38.5 115.5q0 52 -30 103.5t-74 51.5q-17 0 -36 -4t-32 -4q-14 0 -25.5 9t-11.5 18q0 6 4 10.5t7.5 6t5.5 1.5q33 10 47.5 15.5t39 18t35.5 26t20 36t9 52.5 q0 53 -30.5 83.5t-88.5 30.5q-48 0 -81.5 -11t-48.5 -27t-24.5 -32t-17 -27t-18.5 -11q-10 0 -15.5 8.5t-5.5 15.5q0 18 13.5 47t39 61.5t72 55.5t103.5 23q260 0 260 -199q0 -86 -100 -147q62 -25 99.5 -74.5t37.5 -108.5q0 -56 -13 -99.5t-44.5 -81t-91 -57.5t-144.5 -20 q-58 0 -111 14.5t-86 35t-52 40.5t-19 33z" />
<glyph unicode="&#xb4;" horiz-adv-x="614" d="M59 1024l111 332h258l-274 -332h-95z" />
<glyph unicode="&#xb5;" horiz-adv-x="1251" d="M152 -274v1175h256v-645q0 -207 188 -207q99 0 180 92q-8 33 -8 86v674h256v-731q0 -65 22 -97t52 -32q27 0 48 15t21 36h37q0 -112 -223 -112q-55 0 -104.5 24.5t-77.5 79.5q-93 -104 -232 -104q-218 0 -329 96v-144q0 -49 14 -81.5t34 -48.5t39.5 -30t33.5 -35.5 t14 -53.5q0 -44 -31 -68.5t-72 -24.5q-43 0 -80.5 32.5t-37.5 103.5z" />
<glyph unicode="&#xb6;" horiz-adv-x="1087" d="M59 872q0 43 14 86.5t47.5 87.5t83 77t127.5 54t175 21h491v-43q-63 0 -91.5 -9.5t-37.5 -31.5v-1030q9 -22 37.5 -31.5t91.5 -9.5v-43h-317v1128h-105v-1128h-317v43q63 0 91.5 9.5t37.5 31.5v465q-155 15 -241.5 102t-86.5 221z" />
<glyph unicode="&#xb7;" horiz-adv-x="471" d="M94 618q0 60 42 96t97 36q49 0 96.5 -34t47.5 -91q0 -60 -43 -96.5t-98 -36.5q-49 0 -95.5 34t-46.5 92z" />
<glyph unicode="&#xb8;" horiz-adv-x="622" d="M123 -358q36 -4 51 -4q78 0 107.5 28.5t29.5 67.5q0 90 -125 90l58 201h98l-37 -138q26 0 60 -7t70 -22t60.5 -43.5t24.5 -64.5q0 -62 -59.5 -110t-186.5 -48q-62 0 -151 15v35z" />
<glyph unicode="&#xb9;" horiz-adv-x="497" d="M72 1040q173 301 217 301h47v-700q10 -20 88 -20v-48h-340v48q74 0 86 20v444q-20 -12 -64 -63z" />
<glyph unicode="&#xba;" horiz-adv-x="815" d="M111 264v53h594v-53h-594zM111 698q0 108 74.5 179t220.5 71t222.5 -71t76.5 -193q0 -108 -73.5 -181t-217.5 -73q-139 0 -221 74t-82 194zM272 721q0 -133 39.5 -195.5t118.5 -62.5q55 0 85 54t30 142q0 137 -35 195.5t-125 58.5q-53 0 -83 -56t-30 -136z" />
<glyph unicode="&#xbb;" horiz-adv-x="899" d="M113 322v86l204 204l-204 205v86l356 -225q17 -11 26 -30.5t9 -35.5q0 -45 -35 -65zM440 322v86l205 204l-205 205v86l357 -225q34 -22 34 -66q0 -46 -34 -65z" />
<glyph unicode="&#xbc;" horiz-adv-x="1335" d="M61 1040q173 301 218 301h47v-700q10 -20 88 -20v-48h-340v48q74 0 86 20v444q-20 -12 -64 -63zM199 -20l796 1273l101 -36l-797 -1274zM688 215l387 553h107v-494h92v-59h-92v-147q12 -21 86 -21v-47h-336v47q76 0 86 21v147h-330zM803 274h215v308z" />
<glyph unicode="&#xbd;" horiz-adv-x="1390" d="M68 1040q173 301 217 301h47v-700q10 -20 88 -20v-48h-340v48q74 0 86 20v444q-20 -12 -64 -63zM156 -20l796 1273l101 -36l-797 -1274zM745 0v10q0 20 38.5 62t93.5 95.5t110.5 113.5t94 132t38.5 136q0 56 -28 91.5t-80 35.5q-58 0 -99 -13.5t-60.5 -33t-32 -38.5 t-21.5 -32.5t-19 -13.5q-20 0 -20 22q0 14 8.5 37.5t29.5 54t50 57t76.5 44.5t103.5 18q136 0 201 -56.5t65 -154.5q0 -55 -47.5 -126.5t-104 -126t-115.5 -109t-71 -70.5h254q19 7 30 12.5t26 20t22 35.5h45l-57 -203h-531z" />
<glyph unicode="&#xbe;" horiz-adv-x="1413" d="M57 688q0 46 13 65t45 19q19 0 31 -15t21.5 -36t23.5 -42.5t46 -36.5t80 -15q70 0 109 53t39 115q0 51 -30.5 103t-74.5 52q-17 0 -35.5 -4t-31.5 -4q-14 0 -25.5 9t-11.5 18q0 6 4 10.5t7 6t5 1.5q33 10 47.5 15.5t39.5 18t36 26t20 36t9 52.5q0 53 -30.5 83.5 t-88.5 30.5q-48 0 -81.5 -11t-48.5 -27t-24.5 -32t-17 -27t-18.5 -11q-10 0 -15.5 8.5t-5.5 15.5q0 18 13.5 47t39 61.5t72 55.5t103.5 23q260 0 260 -199q0 -86 -101 -147q62 -25 99.5 -74.5t37.5 -108.5q0 -56 -13 -99.5t-44 -81t-90.5 -57.5t-144.5 -20q-58 0 -111 14.5 t-86 35t-52.5 40.5t-19.5 33zM289 -20l796 1273l101 -36l-797 -1274zM758 215l387 553h106v-494h92v-59h-92v-147q12 -21 86 -21v-47h-336v47q75 0 86 21v147h-329zM872 274h215v308z" />
<glyph unicode="&#xbf;" horiz-adv-x="872" d="M61 92q0 59 21.5 114t55.5 97t75.5 81t83 73t75.5 66t55.5 65.5t21.5 66.5q0 10 13.5 19.5t22.5 9.5t23 -9.5t14 -19.5q0 -54 -15 -101t-38 -80t-49.5 -73.5t-49.5 -80t-38 -102t-15 -136.5q0 -107 47 -176.5t128 -69.5q77 0 113 45t36 101q0 25 -15.5 52t-15.5 50 q0 34 29 62t70 28q52 0 79 -33.5t27 -91.5q0 -47 -22.5 -94.5t-64.5 -88t-109 -66t-148 -25.5q-201 0 -305.5 86t-104.5 231zM338 952q0 60 43 96.5t98 36.5q49 0 95.5 -34.5t46.5 -92.5q0 -60 -42.5 -95.5t-97.5 -35.5q-49 0 -96 34t-47 91z" />
<glyph unicode="&#xc0;" horiz-adv-x="1159" d="M-31 0v43q63 0 92 10.5t37 32.5l398 1112h166l401 -1112q15 -43 131 -43v-43h-520v43q94 0 119 25l-115 313h-393l-107 -301q11 -20 38.5 -28.5t88.5 -8.5v-43h-336zM266 1602h258l111 -332h-94zM309 449h344l-174 477z" />
<glyph unicode="&#xc1;" horiz-adv-x="1159" d="M-31 0v43q63 0 92 10.5t37 32.5l398 1112h166l401 -1112q15 -43 131 -43v-43h-520v43q94 0 119 25l-115 313h-393l-107 -301q11 -20 38.5 -28.5t88.5 -8.5v-43h-336zM309 449h344l-174 477zM492 1270l110 332h258l-274 -332h-94z" />
<glyph unicode="&#xc2;" horiz-adv-x="1159" d="M-31 0v43q63 0 92 10.5t37 32.5l398 1112h166l401 -1112q15 -43 131 -43v-43h-520v43q94 0 119 25l-115 313h-393l-107 -301q11 -20 38.5 -28.5t88.5 -8.5v-43h-336zM309 449h344l-174 477zM338 1270l192 332h103l192 -332h-73l-170 137l-170 -137h-74z" />
<glyph unicode="&#xc3;" horiz-adv-x="1159" d="M-31 0v43q63 0 92 10.5t37 32.5l398 1112h166l401 -1112q15 -43 131 -43v-43h-520v43q94 0 119 25l-115 313h-393l-107 -301q11 -20 38.5 -28.5t88.5 -8.5v-43h-336zM276 1270q0 133 44.5 191.5t111.5 58.5q45 0 168.5 -60.5t151.5 -60.5q61 0 81.5 21t20.5 79h39 q0 -133 -45.5 -191.5t-112.5 -58.5q-45 0 -167 60.5t-150 60.5q-61 0 -82 -21t-21 -79h-39zM309 449h344l-174 477z" />
<glyph unicode="&#xc4;" horiz-adv-x="1159" d="M-31 0v43q63 0 92 10.5t37 32.5l398 1112h166l401 -1112q15 -43 131 -43v-43h-520v43q94 0 119 25l-115 313h-393l-107 -301q11 -20 38.5 -28.5t88.5 -8.5v-43h-336zM266 1391q0 49 35.5 84.5t85.5 35.5q49 0 84 -35t35 -85t-35 -85.5t-84 -35.5t-85 36t-36 85zM309 449 h344l-174 477zM657 1391q0 50 35 85t84 35q50 0 85.5 -35.5t35.5 -84.5t-35.5 -85t-85.5 -36q-49 0 -84 35.5t-35 85.5z" />
<glyph unicode="&#xc5;" horiz-adv-x="1159" d="M-31 0v43q63 0 92 10.5t37 32.5l398 1112h166l401 -1112q15 -43 131 -43v-43h-520v43q94 0 119 25l-115 313h-393l-107 -301q11 -20 38.5 -28.5t88.5 -8.5v-43h-336zM309 449h344l-174 477zM430 1411q0 65 44 108.5t108 43.5t107.5 -43.5t43.5 -108.5t-43.5 -108 t-107.5 -43q-65 0 -108.5 43.5t-43.5 107.5zM496 1411q0 -35 25.5 -60.5t60.5 -25.5t60.5 25.5t25.5 60.5t-25.5 60.5t-60.5 25.5t-60.5 -25.5t-25.5 -60.5z" />
<glyph unicode="&#xc6;" horiz-adv-x="1519" d="M-59 0v43q62 0 91 10t38 33v-2l587 1049q-25 22 -116 22v43h868v-199h-43q0 63 -9.5 91.5t-31.5 37.5h-352v-471h215q22 9 31.5 37.5t9.5 91.5h43v-327h-43q0 63 -9.5 91.5t-31.5 37.5h-215v-518h395q49 20 92 129h41l-49 -199h-868v43q63 0 91.5 9.5t37.5 31.5v297h-396 l-167 -301q11 -21 38 -29t88 -8v-43h-155q10 35 20 66l-37 -66h-163zM356 449h357v636z" />
<glyph unicode="&#xc7;" horiz-adv-x="1150" d="M74 582q0 144 54.5 266t145 202t205 124.5t236.5 44.5q60 0 148.5 -31t99.5 -31q24 0 24 41h47l17 -289h-45q-12 84 -106.5 162t-182.5 78v-2q-171 0 -265 -142t-94 -380q0 -278 101 -428t266 -150q100 0 183 68.5t114 152.5l84 -24q-42 -101 -130.5 -174.5t-232.5 -87.5 l-24 -95q26 0 60 -7t70 -22t60.5 -43.5t24.5 -64.5q0 -62 -59.5 -110t-186.5 -48q-62 0 -151 15v35q36 -4 51 -4q78 0 107.5 28.5t29.5 67.5q0 90 -125 90l45 158q-130 7 -239.5 59t-181 135t-111 188t-39.5 218z" />
<glyph unicode="&#xc8;" d="M74 0v43q63 0 91.5 9.5t37.5 31.5v1030q-9 22 -37.5 31.5t-91.5 9.5v43h846v-199h-43q0 63 -9.5 91.5t-31.5 37.5h-373v-471h235q22 9 31.5 37.5t9.5 91.5h43v-327h-43q0 63 -9.5 91.5t-31.5 37.5h-235v-518h416q49 20 92 129h41l-49 -199h-889zM252 1602h258l111 -332 h-95z" />
<glyph unicode="&#xc9;" d="M74 0v43q63 0 91.5 9.5t37.5 31.5v1030q-9 22 -37.5 31.5t-91.5 9.5v43h846v-199h-43q0 63 -9.5 91.5t-31.5 37.5h-373v-471h235q22 9 31.5 37.5t9.5 91.5h43v-327h-43q0 63 -9.5 91.5t-31.5 37.5h-235v-518h416q49 20 92 129h41l-49 -199h-889zM477 1270l111 332h258 l-275 -332h-94z" />
<glyph unicode="&#xca;" d="M74 0v43q63 0 91.5 9.5t37.5 31.5v1030q-9 22 -37.5 31.5t-91.5 9.5v43h846v-199h-43q0 63 -9.5 91.5t-31.5 37.5h-373v-471h235q22 9 31.5 37.5t9.5 91.5h43v-327h-43q0 63 -9.5 91.5t-31.5 37.5h-235v-518h416q49 20 92 129h41l-49 -199h-889zM324 1270l192 332h102 l193 -332h-74l-170 137l-170 -137h-73z" />
<glyph unicode="&#xcb;" d="M74 0v43q63 0 91.5 9.5t37.5 31.5v1030q-9 22 -37.5 31.5t-91.5 9.5v43h846v-199h-43q0 63 -9.5 91.5t-31.5 37.5h-373v-471h235q22 9 31.5 37.5t9.5 91.5h43v-327h-43q0 63 -9.5 91.5t-31.5 37.5h-235v-518h416q49 20 92 129h41l-49 -199h-889zM252 1391q0 49 35.5 84.5 t85.5 35.5q49 0 84 -35t35 -85t-35 -85.5t-84 -35.5t-85 36t-36 85zM643 1391q0 50 35 85t84 35q50 0 85.5 -35.5t35.5 -84.5t-35.5 -85t-85.5 -36q-49 0 -84 35.5t-35 85.5z" />
<glyph unicode="&#xcc;" horiz-adv-x="665" d="M27 1602h258l110 -332h-94zM74 0v43q63 0 91.5 9.5t37.5 31.5v1030q-9 22 -37.5 31.5t-91.5 9.5v43h518v-43q-63 0 -91.5 -9.5t-37.5 -31.5v-1030q9 -22 37.5 -31.5t91.5 -9.5v-43h-518z" />
<glyph unicode="&#xcd;" horiz-adv-x="665" d="M74 0v43q63 0 91.5 9.5t37.5 31.5v1030q-9 22 -37.5 31.5t-91.5 9.5v43h518v-43q-63 0 -91.5 -9.5t-37.5 -31.5v-1030q9 -22 37.5 -31.5t91.5 -9.5v-43h-518zM252 1270l110 332h259l-275 -332h-94z" />
<glyph unicode="&#xce;" horiz-adv-x="665" d="M74 0v43q63 0 91.5 9.5t37.5 31.5v1030q-9 22 -37.5 31.5t-91.5 9.5v43h518v-43q-63 0 -91.5 -9.5t-37.5 -31.5v-1030q9 -22 37.5 -31.5t91.5 -9.5v-43h-518zM98 1270l193 332h102l193 -332h-74l-170 137l-170 -137h-74z" />
<glyph unicode="&#xcf;" horiz-adv-x="665" d="M27 1391q0 49 35.5 84.5t84.5 35.5t84 -35t35 -85t-35 -85.5t-84 -35.5t-84.5 35.5t-35.5 85.5zM74 0v43q63 0 91.5 9.5t37.5 31.5v1030q-9 22 -37.5 31.5t-91.5 9.5v43h518v-43q-63 0 -91.5 -9.5t-37.5 -31.5v-1030q9 -22 37.5 -31.5t91.5 -9.5v-43h-518zM418 1391 q0 50 35 85t84 35t84.5 -35.5t35.5 -84.5q0 -50 -35.5 -85.5t-84.5 -35.5t-84 35.5t-35 85.5z" />
<glyph unicode="&#xd0;" horiz-adv-x="1220" d="M18 977v221h285v143h82v-143h154q273 0 438.5 -166t165.5 -432q0 -267 -161.5 -434.5t-418.5 -167.5h-495v43q63 0 91.5 9.5t37.5 31.5v233q0 131 32 233.5t101.5 184t188 131.5t284.5 66q-49 103 -128.5 155t-172.5 52h-117v-174h-82v174h-170q-25 -10 -48.5 -55.5 t-23.5 -104.5h-43zM457 68h69q51 0 98.5 17.5t92 58t77.5 100.5t52.5 151t19.5 203q0 160 -37 270q-91 -13 -158 -45t-107.5 -74.5t-65 -102t-33 -119t-8.5 -134.5v-325z" />
<glyph unicode="&#xd1;" horiz-adv-x="1275" d="M74 0v43q63 0 91.5 9.5t37.5 31.5v1030q-9 22 -37.5 31.5t-91.5 9.5v43h346l606 -829v745q-9 22 -37.5 31.5t-91.5 9.5v43h328v-43q-63 0 -91.5 -9.5t-37.5 -31.5v-1114h-90l-734 1014v-930q9 -22 37.5 -31.5t91.5 -9.5v-43h-327zM334 1270q0 134 44 192t111 58 q45 0 168.5 -60.5t151.5 -60.5q61 0 81.5 21t20.5 79h39q0 -133 -45 -191.5t-112 -58.5q-45 0 -167.5 60.5t-150.5 60.5q-61 0 -81.5 -21t-20.5 -79h-39z" />
<glyph unicode="&#xd2;" horiz-adv-x="1359" d="M72 598q0 123 48 237.5t129 198.5t194 134.5t237 50.5t237 -50.5t194 -134.5t129 -198.5t48 -237.5q0 -164 -81.5 -306.5t-222 -227t-304.5 -84.5q-167 0 -307.5 84.5t-220.5 226.5t-80 307zM348 614q0 -80 10.5 -156t36 -151.5t63 -131.5t97 -91t133.5 -35 q91 0 157.5 48.5t101 130t50 169t15.5 185.5q0 101 -18.5 196t-56.5 181t-106.5 138t-158.5 52q-74 0 -132 -33.5t-93 -86t-58 -125t-32 -143t-9 -147.5zM373 1602h258l110 -332h-94z" />
<glyph unicode="&#xd3;" horiz-adv-x="1359" d="M72 598q0 123 48 237.5t129 198.5t194 134.5t237 50.5t237 -50.5t194 -134.5t129 -198.5t48 -237.5q0 -164 -81.5 -306.5t-222 -227t-304.5 -84.5q-167 0 -307.5 84.5t-220.5 226.5t-80 307zM348 614q0 -80 10.5 -156t36 -151.5t63 -131.5t97 -91t133.5 -35 q91 0 157.5 48.5t101 130t50 169t15.5 185.5q0 101 -18.5 196t-56.5 181t-106.5 138t-158.5 52q-74 0 -132 -33.5t-93 -86t-58 -125t-32 -143t-9 -147.5zM598 1270l111 332h258l-275 -332h-94z" />
<glyph unicode="&#xd4;" horiz-adv-x="1359" d="M72 598q0 123 48 237.5t129 198.5t194 134.5t237 50.5t237 -50.5t194 -134.5t129 -198.5t48 -237.5q0 -164 -81.5 -306.5t-222 -227t-304.5 -84.5q-167 0 -307.5 84.5t-220.5 226.5t-80 307zM348 614q0 -80 10.5 -156t36 -151.5t63 -131.5t97 -91t133.5 -35 q91 0 157.5 48.5t101 130t50 169t15.5 185.5q0 101 -18.5 196t-56.5 181t-106.5 138t-158.5 52q-74 0 -132 -33.5t-93 -86t-58 -125t-32 -143t-9 -147.5zM444 1270l193 332h102l193 -332h-74l-170 137l-170 -137h-74z" />
<glyph unicode="&#xd5;" horiz-adv-x="1359" d="M72 598q0 123 48 237.5t129 198.5t194 134.5t237 50.5t237 -50.5t194 -134.5t129 -198.5t48 -237.5q0 -164 -81.5 -306.5t-222 -227t-304.5 -84.5q-167 0 -307.5 84.5t-220.5 226.5t-80 307zM348 614q0 -80 10.5 -156t36 -151.5t63 -131.5t97 -91t133.5 -35 q91 0 157.5 48.5t101 130t50 169t15.5 185.5q0 101 -18.5 196t-56.5 181t-106.5 138t-158.5 52q-74 0 -132 -33.5t-93 -86t-58 -125t-32 -143t-9 -147.5zM383 1270q0 133 44.5 191.5t111.5 58.5q45 0 168 -60.5t151 -60.5q61 0 82 21t21 79h38q0 -133 -45 -191.5t-112 -58.5 q-45 0 -167.5 60.5t-150.5 60.5q-61 0 -81.5 -21t-20.5 -79h-39z" />
<glyph unicode="&#xd6;" horiz-adv-x="1359" d="M72 598q0 123 48 237.5t129 198.5t194 134.5t237 50.5t237 -50.5t194 -134.5t129 -198.5t48 -237.5q0 -164 -81.5 -306.5t-222 -227t-304.5 -84.5q-167 0 -307.5 84.5t-220.5 226.5t-80 307zM348 614q0 -80 10.5 -156t36 -151.5t63 -131.5t97 -91t133.5 -35 q91 0 157.5 48.5t101 130t50 169t15.5 185.5q0 101 -18.5 196t-56.5 181t-106.5 138t-158.5 52q-74 0 -132 -33.5t-93 -86t-58 -125t-32 -143t-9 -147.5zM373 1391q0 49 35.5 84.5t85.5 35.5q49 0 83.5 -35t34.5 -85t-34.5 -85.5t-83.5 -35.5q-50 0 -85.5 36t-35.5 85z M764 1391q0 50 35 85t84 35q50 0 85.5 -35.5t35.5 -84.5t-36 -85t-85 -36t-84 35.5t-35 85.5z" />
<glyph unicode="&#xd7;" horiz-adv-x="843" d="M96 389l262 262l-262 262l64 64l262 -262l262 262l64 -64l-263 -262l263 -262l-64 -63l-262 262l-262 -262z" />
<glyph unicode="&#xd8;" horiz-adv-x="1359" d="M72 598q0 123 48 237.5t129 198.5t194 134.5t237 50.5q163 0 309 -89l78 123l59 -36l-77 -127q112 -87 175.5 -216.5t63.5 -275.5q0 -164 -81.5 -306.5t-222 -227t-304.5 -84.5q-150 0 -283 71l-67 -108l-60 37l68 106q-123 86 -194.5 221.5t-71.5 290.5zM348 614 q0 -228 78 -385l485 777q-88 143 -239 143q-74 0 -132 -33.5t-93 -86t-58 -125t-32 -143t-9 -147.5zM467 162q86 -113 221 -113q91 0 157.5 48.5t101 130t50 169t15.5 185.5q0 199 -64 350z" />
<glyph unicode="&#xd9;" horiz-adv-x="1236" d="M37 1155v43h518v-43q-63 0 -91.5 -9.5t-37.5 -31.5v-635q0 -210 72 -320t211 -110q134 0 213 112.5t79 305.5v647q-9 22 -37.5 31.5t-91.5 9.5v43h328v-43q-63 0 -91.5 -9.5t-37.5 -31.5v-606q0 -137 -33.5 -241t-92 -165t-131 -91.5t-157.5 -30.5q-491 0 -491 528v606 q-9 22 -37.5 31.5t-91.5 9.5zM403 1602h259l110 -332h-94z" />
<glyph unicode="&#xda;" horiz-adv-x="1236" d="M37 1155v43h518v-43q-63 0 -91.5 -9.5t-37.5 -31.5v-635q0 -210 72 -320t211 -110q134 0 213 112.5t79 305.5v647q-9 22 -37.5 31.5t-91.5 9.5v43h328v-43q-63 0 -91.5 -9.5t-37.5 -31.5v-606q0 -137 -33.5 -241t-92 -165t-131 -91.5t-157.5 -30.5q-491 0 -491 528v606 q-9 22 -37.5 31.5t-91.5 9.5zM629 1270l110 332h258l-274 -332h-94z" />
<glyph unicode="&#xdb;" horiz-adv-x="1236" d="M37 1155v43h518v-43q-63 0 -91.5 -9.5t-37.5 -31.5v-635q0 -210 72 -320t211 -110q134 0 213 112.5t79 305.5v647q-9 22 -37.5 31.5t-91.5 9.5v43h328v-43q-63 0 -91.5 -9.5t-37.5 -31.5v-606q0 -137 -33.5 -241t-92 -165t-131 -91.5t-157.5 -30.5q-491 0 -491 528v606 q-9 22 -37.5 31.5t-91.5 9.5zM475 1270l193 332h102l193 -332h-74l-170 137l-170 -137h-74z" />
<glyph unicode="&#xdc;" horiz-adv-x="1236" d="M37 1155v43h518v-43q-63 0 -91.5 -9.5t-37.5 -31.5v-635q0 -210 72 -320t211 -110q134 0 213 112.5t79 305.5v647q-9 22 -37.5 31.5t-91.5 9.5v43h328v-43q-63 0 -91.5 -9.5t-37.5 -31.5v-606q0 -137 -33.5 -241t-92 -165t-131 -91.5t-157.5 -30.5q-491 0 -491 528v606 q-9 22 -37.5 31.5t-91.5 9.5zM403 1391q0 49 35.5 84.5t85.5 35.5q49 0 84 -35t35 -85t-35 -85.5t-84 -35.5q-50 0 -85.5 36t-35.5 85zM795 1391q0 50 34.5 85t83.5 35q50 0 85.5 -35.5t35.5 -84.5t-36 -85t-85 -36t-83.5 35.5t-34.5 85.5z" />
<glyph unicode="&#xdd;" horiz-adv-x="1196" d="M-33 1155v43h520v-43q-96 0 -118 -25l317 -555l328 543q-21 37 -127 37v43h336v-43q-101 0 -117 -27l-369 -612v-432q9 -22 37.5 -31.5t91.5 -9.5v-43h-518v43q63 0 91.5 9.5t37.5 31.5v367l-379 663q-23 41 -131 41zM610 1270l111 332h258l-274 -332h-95z" />
<glyph unicode="&#xde;" horiz-adv-x="1081" d="M74 0v43q63 0 91.5 9.5t37.5 31.5v1030q-9 22 -37.5 31.5t-91.5 9.5v43h518v-43q-63 0 -91.5 -9.5t-37.5 -31.5v-141h35q132 0 241 -30t176 -79t103.5 -109t36.5 -124q0 -74 -36 -141t-102 -119t-168.5 -82.5t-226.5 -30.5h-59v-174q9 -22 37.5 -31.5t91.5 -9.5v-43h-518 zM463 328q167 0 241 72t74 229q0 61 -14.5 107.5t-48 85.5t-97.5 60t-155 21v-575z" />
<glyph unicode="&#xdf;" horiz-adv-x="1103" d="M29 0v43q63 0 91.5 9.5t37.5 31.5v887q0 85 36 150t92.5 100t115.5 52t116 17q194 0 288.5 -70.5t94.5 -195.5q0 -86 -68.5 -168t-166.5 -123q155 -28 275 -131.5t120 -212.5q0 -185 -96 -297t-256 -112q-66 0 -117 20.5t-77 49.5t-39 54.5t-13 42.5q0 62 16 86.5 t58 24.5q28 0 44 -22.5t22.5 -54.5t14 -63.5t26.5 -54t52 -22.5q62 0 92.5 81.5t30.5 225.5q0 85 -33 165.5t-99 136t-150 55.5h-5q-32 0 -32 20q0 19 32 29q53 20 93.5 103.5t40.5 164.5q0 207 -119 207q-54 0 -93.5 -60t-39.5 -170v-999h-385z" />
<glyph unicode="&#xe0;" d="M51 229q0 33 16.5 62t43 50.5t67 41t80.5 32.5t93 27t95.5 23t96 21t86.5 20q0 78 -3 125.5t-12.5 94t-28.5 70t-51.5 38t-80.5 14.5q-68 0 -122.5 -27.5t-64.5 -70.5q47 0 47 -84q0 -35 -34.5 -53.5t-73.5 -18.5q-41 0 -73 29t-32 73q0 105 104 165.5t269 60.5 q194 0 303 -97.5t109 -246.5v-406q0 -65 21.5 -96t51.5 -31q27 0 48.5 14t21.5 35h37q0 -110 -225 -110q-105 0 -162 73q-120 -77 -285 -77q-69 0 -126.5 11.5t-108 38.5t-79 77.5t-28.5 121.5zM160 1386h258l110 -331h-94zM313 225q0 -94 40 -135t91 -41q40 0 97.5 16 t107.5 41q-20 55 -20 123v232q-136 -41 -179 -61q-137 -64 -137 -175z" />
<glyph unicode="&#xe1;" d="M51 229q0 33 16.5 62t43 50.5t67 41t80.5 32.5t93 27t95.5 23t96 21t86.5 20q0 78 -3 125.5t-12.5 94t-28.5 70t-51.5 38t-80.5 14.5q-68 0 -122.5 -27.5t-64.5 -70.5q47 0 47 -84q0 -35 -34.5 -53.5t-73.5 -18.5q-41 0 -73 29t-32 73q0 105 104 165.5t269 60.5 q194 0 303 -97.5t109 -246.5v-406q0 -65 21.5 -96t51.5 -31q27 0 48.5 14t21.5 35h37q0 -110 -225 -110q-105 0 -162 73q-120 -77 -285 -77q-69 0 -126.5 11.5t-108 38.5t-79 77.5t-28.5 121.5zM313 225q0 -94 40 -135t91 -41q40 0 97.5 16t107.5 41q-20 55 -20 123v232 q-136 -41 -179 -61q-137 -64 -137 -175zM385 1055l111 331h258l-275 -331h-94z" />
<glyph unicode="&#xe2;" d="M51 229q0 33 16.5 62t43 50.5t67 41t80.5 32.5t93 27t95.5 23t96 21t86.5 20q0 78 -3 125.5t-12.5 94t-28.5 70t-51.5 38t-80.5 14.5q-68 0 -122.5 -27.5t-64.5 -70.5q47 0 47 -84q0 -35 -34.5 -53.5t-73.5 -18.5q-41 0 -73 29t-32 73q0 105 104 165.5t269 60.5 q194 0 303 -97.5t109 -246.5v-406q0 -65 21.5 -96t51.5 -31q27 0 48.5 14t21.5 35h37q0 -110 -225 -110q-105 0 -162 73q-120 -77 -285 -77q-69 0 -126.5 11.5t-108 38.5t-79 77.5t-28.5 121.5zM231 1055l193 331h102l193 -331h-74l-170 137l-170 -137h-74zM313 225 q0 -94 40 -135t91 -41q40 0 97.5 16t107.5 41q-20 55 -20 123v232q-136 -41 -179 -61q-137 -64 -137 -175z" />
<glyph unicode="&#xe3;" d="M51 229q0 33 16.5 62t43 50.5t67 41t80.5 32.5t93 27t95.5 23t96 21t86.5 20q0 78 -3 125.5t-12.5 94t-28.5 70t-51.5 38t-80.5 14.5q-68 0 -122.5 -27.5t-64.5 -70.5q47 0 47 -84q0 -35 -34.5 -53.5t-73.5 -18.5q-41 0 -73 29t-32 73q0 105 104 165.5t269 60.5 q194 0 303 -97.5t109 -246.5v-406q0 -65 21.5 -96t51.5 -31q27 0 48.5 14t21.5 35h37q0 -110 -225 -110q-105 0 -162 73q-120 -77 -285 -77q-69 0 -126.5 11.5t-108 38.5t-79 77.5t-28.5 121.5zM170 1055q0 133 44.5 191.5t111.5 58.5q45 0 168 -60.5t151 -60.5q61 0 82 21 t21 79h38q0 -133 -45 -191.5t-112 -58.5q-45 0 -167.5 60.5t-150.5 60.5q-61 0 -81.5 -21t-20.5 -79h-39zM313 225q0 -94 40 -135t91 -41q40 0 97.5 16t107.5 41q-20 55 -20 123v232q-136 -41 -179 -61q-137 -64 -137 -175z" />
<glyph unicode="&#xe4;" d="M51 229q0 33 16.5 62t43 50.5t67 41t80.5 32.5t93 27t95.5 23t96 21t86.5 20q0 78 -3 125.5t-12.5 94t-28.5 70t-51.5 38t-80.5 14.5q-68 0 -122.5 -27.5t-64.5 -70.5q47 0 47 -84q0 -35 -34.5 -53.5t-73.5 -18.5q-41 0 -73 29t-32 73q0 105 104 165.5t269 60.5 q194 0 303 -97.5t109 -246.5v-406q0 -65 21.5 -96t51.5 -31q27 0 48.5 14t21.5 35h37q0 -110 -225 -110q-105 0 -162 73q-120 -77 -285 -77q-69 0 -126.5 11.5t-108 38.5t-79 77.5t-28.5 121.5zM160 1176q0 49 35.5 84.5t85.5 35.5q49 0 83.5 -35t34.5 -85t-34.5 -85.5 t-83.5 -35.5t-85 35.5t-36 85.5zM313 225q0 -94 40 -135t91 -41q40 0 97.5 16t107.5 41q-20 55 -20 123v232q-136 -41 -179 -61q-137 -64 -137 -175zM551 1176q0 50 35 85t84 35q50 0 85.5 -35.5t35.5 -84.5q0 -50 -35.5 -85.5t-85.5 -35.5q-49 0 -84 35.5t-35 85.5z" />
<glyph unicode="&#xe5;" d="M51 229q0 33 16.5 62t43 50.5t67 41t80.5 32.5t93 27t95.5 23t96 21t86.5 20q0 78 -3 125.5t-12.5 94t-28.5 70t-51.5 38t-80.5 14.5q-68 0 -122.5 -27.5t-64.5 -70.5q47 0 47 -84q0 -35 -34.5 -53.5t-73.5 -18.5q-41 0 -73 29t-32 73q0 105 104 165.5t269 60.5 q194 0 303 -97.5t109 -246.5v-406q0 -65 21.5 -96t51.5 -31q27 0 48.5 14t21.5 35h37q0 -110 -225 -110q-105 0 -162 73q-120 -77 -285 -77q-69 0 -126.5 11.5t-108 38.5t-79 77.5t-28.5 121.5zM313 225q0 -94 40 -135t91 -41q40 0 97.5 16t107.5 41q-20 55 -20 123v232 q-136 -41 -179 -61q-137 -64 -137 -175zM324 1196q0 65 43.5 108.5t107.5 43.5q65 0 108.5 -44t43.5 -108t-43.5 -108t-108.5 -44q-64 0 -107.5 43.5t-43.5 108.5zM389 1196q0 -35 25.5 -60.5t60.5 -25.5t60.5 25.5t25.5 60.5t-25.5 60.5t-60.5 25.5t-60.5 -25.5 t-25.5 -60.5z" />
<glyph unicode="&#xe6;" horiz-adv-x="1589" d="M51 229q0 37 19.5 68.5t57.5 55.5t80 43t102 35t107 27t111 25t99 23q0 66 -1.5 106.5t-7.5 84t-17.5 68t-30.5 45.5t-48 29.5t-69 8.5q-68 0 -122.5 -27.5t-64.5 -70.5q47 0 47 -84q0 -35 -34.5 -53.5t-73.5 -18.5q-41 0 -73 29t-32 73q0 105 104 165.5t269 60.5 q191 0 307 -101q126 101 299 101q112 0 201 -35t145 -95t85.5 -136t29.5 -162h-647q2 -115 36.5 -214.5t98 -161t141.5 -61.5q92 0 159.5 31t127.5 105l49 -25q-60 -97 -154.5 -142.5t-250.5 -45.5q-94 0 -186.5 33t-161.5 108q-44 -52 -134 -96.5t-225 -44.5 q-69 0 -126.5 11.5t-108 38.5t-79 77.5t-28.5 121.5zM313 225q0 -94 40 -135t91 -41q62 0 152.5 34t124.5 75q-86 116 -94 301l-30 -9q-53 -16 -81.5 -25t-73.5 -30t-68.5 -41.5t-42 -54t-18.5 -74.5zM895 557h373q-6 69 -16 120t-29.5 94.5t-51 66t-75.5 22.5 q-74 0 -132.5 -74.5t-68.5 -228.5z" />
<glyph unicode="&#xe7;" horiz-adv-x="987" d="M66 496q0 114 59.5 211t169.5 156t248 59q166 0 267 -56.5t101 -160.5q0 -50 -25 -83.5t-77 -33.5q-49 0 -79 24t-30 62q0 43 21.5 63.5t50.5 20.5q-26 102 -209 102q-97 0 -164 -97.5t-67 -258.5q0 -118 31.5 -219t93.5 -164.5t141 -63.5q90 0 151.5 34.5t108.5 113.5 l76 -37q-54 -88 -135.5 -133.5t-210.5 -52.5l-25 -95q26 0 60 -7t70 -22t60.5 -43.5t24.5 -64.5q0 -62 -59.5 -110t-186.5 -48q-62 0 -151 15v35q36 -4 51 -4q78 0 107.5 28.5t29.5 67.5q0 90 -125 90l45 158q-60 5 -115.5 21.5t-112.5 55t-99.5 94t-69 144t-26.5 199.5z " />
<glyph unicode="&#xe8;" horiz-adv-x="1026" d="M63 496q0 177 126.5 301.5t326.5 124.5q112 0 201 -35t145 -95t85.5 -136t29.5 -162h-647q2 -115 36.5 -214.5t98 -161t141.5 -61.5q92 0 159.5 31t127.5 105l49 -25q-60 -97 -154.5 -142.5t-250.5 -45.5q-62 0 -122 13.5t-125.5 49.5t-114.5 92t-80.5 149t-31.5 212z M199 1386h258l110 -331h-94zM332 557h373q-6 69 -16.5 120t-29.5 94.5t-51 66t-76 22.5q-74 0 -132 -74.5t-68 -228.5z" />
<glyph unicode="&#xe9;" horiz-adv-x="1026" d="M63 496q0 177 126.5 301.5t326.5 124.5q112 0 201 -35t145 -95t85.5 -136t29.5 -162h-647q2 -115 36.5 -214.5t98 -161t141.5 -61.5q92 0 159.5 31t127.5 105l49 -25q-60 -97 -154.5 -142.5t-250.5 -45.5q-62 0 -122 13.5t-125.5 49.5t-114.5 92t-80.5 149t-31.5 212z M332 557h373q-6 69 -16.5 120t-29.5 94.5t-51 66t-76 22.5q-74 0 -132 -74.5t-68 -228.5zM424 1055l111 331h258l-275 -331h-94z" />
<glyph unicode="&#xea;" horiz-adv-x="1026" d="M63 496q0 177 126.5 301.5t326.5 124.5q112 0 201 -35t145 -95t85.5 -136t29.5 -162h-647q2 -115 36.5 -214.5t98 -161t141.5 -61.5q92 0 159.5 31t127.5 105l49 -25q-60 -97 -154.5 -142.5t-250.5 -45.5q-62 0 -122 13.5t-125.5 49.5t-114.5 92t-80.5 149t-31.5 212z M270 1055l193 331h102l193 -331h-74l-170 137l-170 -137h-74zM332 557h373q-6 69 -16.5 120t-29.5 94.5t-51 66t-76 22.5q-74 0 -132 -74.5t-68 -228.5z" />
<glyph unicode="&#xeb;" horiz-adv-x="1026" d="M63 496q0 177 126.5 301.5t326.5 124.5q112 0 201 -35t145 -95t85.5 -136t29.5 -162h-647q2 -115 36.5 -214.5t98 -161t141.5 -61.5q92 0 159.5 31t127.5 105l49 -25q-60 -97 -154.5 -142.5t-250.5 -45.5q-62 0 -122 13.5t-125.5 49.5t-114.5 92t-80.5 149t-31.5 212z M199 1176q0 50 35.5 85t84.5 35t84 -35t35 -85t-35 -85.5t-84 -35.5t-84.5 35.5t-35.5 85.5zM332 557h373q-6 69 -16.5 120t-29.5 94.5t-51 66t-76 22.5q-74 0 -132 -74.5t-68 -228.5zM590 1176q0 50 35 85t84 35t84.5 -35t35.5 -85t-35.5 -85.5t-84.5 -35.5t-84 35.5 t-35 85.5z" />
<glyph unicode="&#xec;" horiz-adv-x="591" d="M-6 1386h258l110 -331h-94zM49 0v43q63 0 91.5 9.5t37.5 31.5v694q-106 8 -129 8v48q39 0 188 44t197 44v-838q9 -22 37.5 -31.5t91.5 -9.5v-43h-514z" />
<glyph unicode="&#xed;" horiz-adv-x="591" d="M49 0v43q63 0 91.5 9.5t37.5 31.5v694q-106 8 -129 8v48q39 0 188 44t197 44v-838q9 -22 37.5 -31.5t91.5 -9.5v-43h-514zM219 1055l111 331h258l-275 -331h-94z" />
<glyph unicode="&#xee;" horiz-adv-x="591" d="M49 0v43q63 0 91.5 9.5t37.5 31.5v694q-106 8 -129 8v48q39 0 188 44t197 44v-838q9 -22 37.5 -31.5t91.5 -9.5v-43h-514zM66 1055l192 331h102l193 -331h-74l-170 137l-170 -137h-73z" />
<glyph unicode="&#xef;" horiz-adv-x="591" d="M-6 1176q0 49 35.5 84.5t85.5 35.5q49 0 83.5 -35t34.5 -85t-34.5 -85.5t-83.5 -35.5t-85 35.5t-36 85.5zM49 0v43q63 0 91.5 9.5t37.5 31.5v694q-106 8 -129 8v48q39 0 188 44t197 44v-838q9 -22 37.5 -31.5t91.5 -9.5v-43h-514zM385 1176q0 50 35 85t84 35 q50 0 85.5 -35.5t35.5 -84.5q0 -50 -35.5 -85.5t-85.5 -35.5q-49 0 -84 35.5t-35 85.5z" />
<glyph unicode="&#xf0;" horiz-adv-x="1107" d="M63 467q0 93 28.5 173.5t85.5 144.5t152 100.5t218 36.5q44 0 102 -7q-56 95 -123 168l-161 -92l-35 60l145 84q-37 36 -75.5 65.5t-57.5 41.5l-20 11l22 37q98 -32 219 -104l174 100l35 -59l-143 -84q80 -54 147 -118t129.5 -150t98.5 -197.5t36 -235.5q0 -74 -17 -141 t-54.5 -126t-92.5 -102t-135.5 -68t-179.5 -25q-231 0 -364.5 134t-133.5 353zM332 508q0 -234 71.5 -350.5t184.5 -116.5q84 0 134 99t50 255q0 242 -63.5 352.5t-196.5 110.5q-73 0 -126.5 -106t-53.5 -244z" />
<glyph unicode="&#xf1;" horiz-adv-x="1222" d="M49 0v43q63 0 91.5 9.5t37.5 31.5v694q-110 8 -129 8v48q39 0 188 44t197 44v-86q102 86 225 86q198 0 306 -73t108 -218v-547q9 -22 37.5 -31.5t91.5 -9.5v-43h-514v43q63 0 91.5 9.5t37.5 31.5v561q0 91 -42 149t-128 58q-127 0 -213 -82v-686q9 -22 37.5 -31.5 t91.5 -9.5v-43h-514zM334 1057q0 134 44 192t111 58q45 0 168.5 -60.5t151.5 -60.5q61 0 81.5 21t20.5 79h39q0 -133 -45 -191.5t-112 -58.5q-45 0 -167.5 60.5t-150.5 60.5q-61 0 -81.5 -21t-20.5 -79h-39z" />
<glyph unicode="&#xf2;" horiz-adv-x="1116" d="M63 467q0 93 29.5 173.5t87.5 144.5t154 100.5t219 36.5q243 0 371.5 -129.5t128.5 -350.5q0 -93 -29 -174.5t-86.5 -147t-152.5 -103t-218 -37.5q-232 0 -368 134.5t-136 352.5zM246 1386h258l110 -331h-94zM332 508q0 -243 65 -355t197 -112q92 0 141 97t49 257 q0 251 -58 357t-208 106q-59 0 -102 -50t-63.5 -128t-20.5 -172z" />
<glyph unicode="&#xf3;" horiz-adv-x="1116" d="M63 467q0 93 29.5 173.5t87.5 144.5t154 100.5t219 36.5q243 0 371.5 -129.5t128.5 -350.5q0 -93 -29 -174.5t-86.5 -147t-152.5 -103t-218 -37.5q-232 0 -368 134.5t-136 352.5zM332 508q0 -243 65 -355t197 -112q92 0 141 97t49 257q0 251 -58 357t-208 106 q-59 0 -102 -50t-63.5 -128t-20.5 -172zM471 1055l111 331h258l-275 -331h-94z" />
<glyph unicode="&#xf4;" horiz-adv-x="1116" d="M63 467q0 93 29.5 173.5t87.5 144.5t154 100.5t219 36.5q243 0 371.5 -129.5t128.5 -350.5q0 -93 -29 -174.5t-86.5 -147t-152.5 -103t-218 -37.5q-232 0 -368 134.5t-136 352.5zM317 1055l193 331h102l193 -331h-74l-170 137l-170 -137h-74zM332 508q0 -243 65 -355 t197 -112q92 0 141 97t49 257q0 251 -58 357t-208 106q-59 0 -102 -50t-63.5 -128t-20.5 -172z" />
<glyph unicode="&#xf5;" horiz-adv-x="1116" d="M63 467q0 93 29.5 173.5t87.5 144.5t154 100.5t219 36.5q243 0 371.5 -129.5t128.5 -350.5q0 -93 -29 -174.5t-86.5 -147t-152.5 -103t-218 -37.5q-232 0 -368 134.5t-136 352.5zM256 1055q0 133 44.5 191.5t111.5 58.5q45 0 168 -60.5t151 -60.5q61 0 82 21t21 79h38 q0 -133 -45 -191.5t-112 -58.5q-45 0 -167.5 60.5t-150.5 60.5q-61 0 -81.5 -21t-20.5 -79h-39zM332 508q0 -243 65 -355t197 -112q92 0 141 97t49 257q0 251 -58 357t-208 106q-59 0 -102 -50t-63.5 -128t-20.5 -172z" />
<glyph unicode="&#xf6;" horiz-adv-x="1116" d="M63 467q0 93 29.5 173.5t87.5 144.5t154 100.5t219 36.5q243 0 371.5 -129.5t128.5 -350.5q0 -93 -29 -174.5t-86.5 -147t-152.5 -103t-218 -37.5q-232 0 -368 134.5t-136 352.5zM246 1176q0 49 35.5 84.5t85.5 35.5q49 0 83.5 -35t34.5 -85t-34.5 -85.5t-83.5 -35.5 t-85 35.5t-36 85.5zM332 508q0 -243 65 -355t197 -112q92 0 141 97t49 257q0 251 -58 357t-208 106q-59 0 -102 -50t-63.5 -128t-20.5 -172zM637 1176q0 50 35 85t84 35q50 0 85.5 -35.5t35.5 -84.5q0 -50 -35.5 -85.5t-85.5 -35.5q-49 0 -84 35.5t-35 85.5z" />
<glyph unicode="&#xf7;" horiz-adv-x="970" d="M82 606v90h807v-90h-807zM369 362q0 47 31.5 85t82.5 38q44 0 81.5 -35t37.5 -81t-33 -85.5t-84 -39.5q-44 0 -80 36t-36 82zM369 936q0 47 31.5 85t82.5 38q44 0 81.5 -35.5t37.5 -81.5t-33 -85.5t-84 -39.5q-43 0 -79.5 36.5t-36.5 82.5z" />
<glyph unicode="&#xf8;" horiz-adv-x="1116" d="M63 467q0 93 29.5 173.5t87.5 144.5t154 100.5t219 36.5q151 0 266 -56l74 107l55 -41l-69 -101q174 -125 174 -389q0 -93 -29 -174.5t-86.5 -147t-152.5 -103t-218 -37.5q-142 0 -250 51l-71 -103l-56 41l68 97q-94 65 -144.5 168t-50.5 233zM332 508q0 -177 35 -287 l364 520q-60 117 -213 117q-59 0 -102 -50t-63.5 -128t-20.5 -172zM399 147q62 -106 195 -106q92 0 141 97t49 257q0 164 -24 269z" />
<glyph unicode="&#xf9;" horiz-adv-x="1167" d="M20 858v43h386v-645q0 -42 1.5 -66t9.5 -55t23.5 -47t44.5 -27.5t72 -11.5q103 0 197 55v713q-9 22 -37.5 31.5t-91.5 9.5v43h385v-778q110 -8 129 -8v-47q-39 0 -188 -44t-197 -44v59q-102 -59 -209 -59q-395 0 -395 290v547q-9 22 -38 31.5t-92 9.5zM260 1386h258 l111 -331h-94z" />
<glyph unicode="&#xfa;" horiz-adv-x="1167" d="M20 858v43h386v-645q0 -42 1.5 -66t9.5 -55t23.5 -47t44.5 -27.5t72 -11.5q103 0 197 55v713q-9 22 -37.5 31.5t-91.5 9.5v43h385v-778q110 -8 129 -8v-47q-39 0 -188 -44t-197 -44v59q-102 -59 -209 -59q-395 0 -395 290v547q-9 22 -38 31.5t-92 9.5zM485 1055l111 331 h258l-274 -331h-95z" />
<glyph unicode="&#xfb;" horiz-adv-x="1167" d="M20 858v43h386v-645q0 -42 1.5 -66t9.5 -55t23.5 -47t44.5 -27.5t72 -11.5q103 0 197 55v713q-9 22 -37.5 31.5t-91.5 9.5v43h385v-778q110 -8 129 -8v-47q-39 0 -188 -44t-197 -44v59q-102 -59 -209 -59q-395 0 -395 290v547q-9 22 -38 31.5t-92 9.5zM332 1055l192 331 h103l192 -331h-74l-170 137l-169 -137h-74z" />
<glyph unicode="&#xfc;" horiz-adv-x="1167" d="M20 858v43h386v-645q0 -42 1.5 -66t9.5 -55t23.5 -47t44.5 -27.5t72 -11.5q103 0 197 55v713q-9 22 -37.5 31.5t-91.5 9.5v43h385v-778q110 -8 129 -8v-47q-39 0 -188 -44t-197 -44v59q-102 -59 -209 -59q-395 0 -395 290v547q-9 22 -38 31.5t-92 9.5zM260 1176 q0 49 35.5 84.5t85.5 35.5q49 0 84 -35t35 -85t-35 -85.5t-84 -35.5t-85 35.5t-36 85.5zM651 1176q0 50 35 85t84 35q50 0 85.5 -35.5t35.5 -84.5q0 -50 -35.5 -85.5t-85.5 -35.5q-49 0 -84 35.5t-35 85.5z" />
<glyph unicode="&#xfd;" horiz-adv-x="1032" d="M-25 858v43h469v-43q-59 0 -86 -8l244 -600l234 586q-28 22 -115 22v43h336v-43q-112 0 -125 -33l-414 -1034q-20 -50 -48.5 -85.5t-59 -52t-56.5 -23.5t-51 -7q-149 0 -149 98q0 36 23 59t67 23q22 0 36.5 -9.5t21 -21t20.5 -21t34 -9.5q45 0 58 37l53 131l-363 907 q-9 22 -37.5 31.5t-91.5 9.5zM500 1055l110 331h258l-274 -331h-94z" />
<glyph unicode="&#xfe;" horiz-adv-x="1060" d="M-12 -350q63 0 91.5 9.5t37.5 31.5v1456q-110 8 -129 8v47q39 0 188.5 44t196.5 44v-430q94 62 211 62q93 0 173.5 -33.5t132.5 -87.5t81.5 -120.5t29.5 -133.5q0 -138 -46 -244t-130.5 -174.5t-197.5 -106t-254 -45.5v-286q9 -22 37.5 -31.5t91.5 -9.5v-43h-514v43z M373 39q173 18 267.5 125.5t94.5 331.5q0 168 -42.5 262t-129.5 94q-111 0 -190 -59v-754z" />
<glyph unicode="&#xff;" horiz-adv-x="1032" d="M-25 858v43h469v-43q-59 0 -86 -8l244 -600l234 586q-28 22 -115 22v43h336v-43q-112 0 -125 -33l-414 -1034q-20 -50 -48.5 -85.5t-59 -52t-56.5 -23.5t-51 -7q-149 0 -149 98q0 36 23 59t67 23q22 0 36.5 -9.5t21 -21t20.5 -21t34 -9.5q45 0 58 37l53 131l-363 907 q-9 22 -37.5 31.5t-91.5 9.5zM274 1176q0 49 35.5 84.5t85.5 35.5q49 0 84 -35t35 -85t-35 -85.5t-84 -35.5t-85 35.5t-36 85.5zM666 1176q0 50 34.5 85t83.5 35q50 0 85.5 -35.5t35.5 -84.5q0 -50 -35.5 -85.5t-85.5 -35.5q-49 0 -83.5 35.5t-34.5 85.5z" />
<glyph unicode="&#x152;" horiz-adv-x="1638" d="M72 598q0 123 48 237.5t129 198.5t194 134.5t237 50.5q80 0 154 -21h694v-199h-43q0 63 -9.5 91.5t-31.5 37.5h-342v-471h205q22 9 31.5 37.5t9.5 91.5h43v-327h-43q0 63 -9.5 91.5t-31.5 37.5h-205v-518h385q49 20 92 129h41l-49 -199h-737q-70 -20 -154 -20 q-167 0 -307.5 84.5t-220.5 226.5t-80 307zM348 614q0 -80 10.5 -156t36 -151.5t63 -131.5t97 -91t133.5 -35q88 0 154 47v991q-72 62 -170 62q-74 0 -132 -33.5t-93 -86t-58 -125t-32 -143t-9 -147.5z" />
<glyph unicode="&#x153;" horiz-adv-x="1748" d="M63 467q0 93 29.5 173.5t87.5 144.5t154 100.5t219 36.5q232 0 362 -121q128 121 324 121q112 0 201 -35t145 -95t85.5 -136t29.5 -162h-647q2 -115 36.5 -214.5t98 -161t141.5 -61.5q92 0 159.5 31t127.5 105l49 -25q-60 -97 -154.5 -142.5t-250.5 -45.5q-88 0 -178 31 t-158 98q-132 -129 -357 -129q-232 0 -368 134.5t-136 352.5zM332 508q0 -243 65 -355t197 -112q92 0 141 97t49 257q0 251 -58 357t-208 106q-59 0 -102 -50t-63.5 -128t-20.5 -172zM1055 557h372q-6 69 -16 120t-29.5 94.5t-51 66t-75.5 22.5q-74 0 -132 -74.5t-68 -228.5 z" />
<glyph unicode="&#x178;" horiz-adv-x="1196" d="M-33 1155v43h520v-43q-96 0 -118 -25l317 -555l328 543q-21 37 -127 37v43h336v-43q-101 0 -117 -27l-369 -612v-432q9 -22 37.5 -31.5t91.5 -9.5v-43h-518v43q63 0 91.5 9.5t37.5 31.5v367l-379 663q-23 41 -131 41zM385 1391q0 49 35.5 84.5t85.5 35.5q49 0 84 -35 t35 -85t-35 -85.5t-84 -35.5q-50 0 -85.5 36t-35.5 85zM776 1391q0 50 35 85t84 35q50 0 85.5 -35.5t35.5 -84.5t-36 -85t-85 -36t-84 35.5t-35 85.5z" />
<glyph unicode="&#x2c6;" horiz-adv-x="733" d="M123 1024l192 332h103l192 -332h-73l-170 137l-170 -137h-74z" />
<glyph unicode="&#x2dc;" horiz-adv-x="862" d="M123 1024q0 133 44.5 191.5t111.5 58.5q45 0 168 -60.5t151 -60.5q61 0 81.5 21t20.5 79h39q0 -133 -45 -191t-112 -58q-45 0 -167.5 60t-150.5 60q-61 0 -81.5 -21t-20.5 -79h-39z" />
<glyph unicode="&#x2000;" horiz-adv-x="801" />
<glyph unicode="&#x2001;" horiz-adv-x="1602" />
<glyph unicode="&#x2002;" horiz-adv-x="801" />
<glyph unicode="&#x2003;" horiz-adv-x="1602" />
<glyph unicode="&#x2004;" horiz-adv-x="534" />
<glyph unicode="&#x2005;" horiz-adv-x="400" />
<glyph unicode="&#x2006;" horiz-adv-x="267" />
<glyph unicode="&#x2007;" horiz-adv-x="267" />
<glyph unicode="&#x2008;" horiz-adv-x="200" />
<glyph unicode="&#x2009;" horiz-adv-x="320" />
<glyph unicode="&#x200a;" horiz-adv-x="89" />
<glyph unicode="&#x2010;" horiz-adv-x="761" d="M111 606v90h540v-90h-540z" />
<glyph unicode="&#x2011;" horiz-adv-x="761" d="M111 606v90h540v-90h-540z" />
<glyph unicode="&#x2012;" horiz-adv-x="761" d="M111 606v90h540v-90h-540z" />
<glyph unicode="&#x2013;" horiz-adv-x="1028" d="M111 606v90h807v-90h-807z" />
<glyph unicode="&#x2014;" horiz-adv-x="1376" d="M111 606v90h1155v-90h-1155z" />
<glyph unicode="&#x2018;" horiz-adv-x="446" d="M70 1110q0 185 274 266v-80q-55 -7 -107.5 -54t-52.5 -107q0 -41 11 -41q1 0 9 6.5t23 13t31 6.5q52 0 83.5 -26t31.5 -74q0 -33 -14 -55t-35 -30t-33.5 -10.5t-22.5 -2.5q-84 0 -141 52t-57 136z" />
<glyph unicode="&#x2019;" horiz-adv-x="411" d="M61 1278q0 33 14 55t35 30t33.5 10.5t22.5 2.5q84 0 141.5 -52t57.5 -136q0 -185 -275 -266v79q55 7 107.5 54.5t52.5 107.5q0 41 -10 41q-1 0 -9.5 -6.5t-23.5 -13t-31 -6.5q-52 0 -83.5 26t-31.5 74z" />
<glyph unicode="&#x201a;" horiz-adv-x="460" d="M90 78q0 33 14 55t35 30t33.5 10.5t22.5 2.5q84 0 141 -52t57 -136q0 -186 -274 -267v80q55 7 107.5 54.5t52.5 107.5q0 41 -11 41q-1 0 -9 -7t-23 -13.5t-31 -6.5q-52 0 -83.5 26.5t-31.5 74.5z" />
<glyph unicode="&#x201c;" horiz-adv-x="815" d="M70 1110q0 185 274 266v-80q-55 -7 -107.5 -54t-52.5 -107q0 -41 11 -41q1 0 9 6.5t23 13t31 6.5q52 0 83.5 -26t31.5 -74q0 -33 -14 -55t-35 -30t-33.5 -10.5t-22.5 -2.5q-84 0 -141 52t-57 136zM438 1110q0 185 275 266v-80q-55 -7 -107.5 -54t-52.5 -107q0 -41 10 -41 q1 0 9.5 6.5t23.5 13t31 6.5q52 0 83 -26t31 -74q0 -33 -13.5 -55t-35 -30t-33.5 -10.5t-22 -2.5q-84 0 -141.5 52t-57.5 136z" />
<glyph unicode="&#x201d;" horiz-adv-x="784" d="M66 1274q0 33 13.5 55t35 30t33.5 10.5t22 2.5q84 0 141.5 -52t57.5 -136q0 -185 -275 -266v79q55 7 107.5 54.5t52.5 107.5q0 41 -10 41q-1 0 -9.5 -6.5t-23.5 -13t-31 -6.5q-52 0 -83 26t-31 74zM434 1274q0 33 14 55t35 30t33.5 10.5t22.5 2.5q84 0 141 -52t57 -136 q0 -185 -274 -266v79q55 7 107.5 54.5t52.5 107.5q0 41 -11 41q-1 0 -9 -6.5t-23 -13t-31 -6.5q-52 0 -83.5 26t-31.5 74z" />
<glyph unicode="&#x201e;" horiz-adv-x="829" d="M90 78q0 33 14 55t35 30t33.5 10.5t22.5 2.5q84 0 141 -52t57 -136q0 -186 -274 -267v80q55 7 107.5 54.5t52.5 107.5q0 41 -11 41q-1 0 -9 -7t-23 -13.5t-31 -6.5q-52 0 -83.5 26.5t-31.5 74.5zM459 78q0 33 13.5 55t35 30t33.5 10.5t22 2.5q84 0 141.5 -52t57.5 -136 q0 -186 -275 -267v80q55 7 107.5 54.5t52.5 107.5q0 41 -10 41q-1 0 -9.5 -7t-23.5 -13.5t-31 -6.5q-52 0 -83 26.5t-31 74.5z" />
<glyph unicode="&#x2022;" horiz-adv-x="651" d="M76 614q0 93 68.5 167.5t177.5 74.5q96 0 174.5 -68t78.5 -161t-70 -169.5t-179 -76.5q-96 0 -173 69.5t-77 163.5z" />
<glyph unicode="&#x2026;" horiz-adv-x="1351" d="M84 106q0 60 42 96t97 36q49 0 96.5 -34t47.5 -91q0 -60 -43.5 -96.5t-98.5 -36.5q-49 0 -95 34t-46 92zM535 106q0 60 42 96t97 36q49 0 96 -34t47 -91q0 -60 -43 -96.5t-98 -36.5q-49 0 -95 34t-46 92zM985 106q0 60 42 96t97 36q49 0 96.5 -34t47.5 -91 q0 -60 -43.5 -96.5t-98.5 -36.5q-49 0 -95 34t-46 92z" />
<glyph unicode="&#x202f;" horiz-adv-x="320" />
<glyph unicode="&#x2039;" horiz-adv-x="571" d="M68 612q0 47 34 66l357 225v-86l-205 -205l205 -204v-86l-357 225q-34 22 -34 65z" />
<glyph unicode="&#x203a;" horiz-adv-x="571" d="M113 322v86l204 204l-204 205v86l356 -225q17 -11 26 -30.5t9 -35.5q0 -45 -35 -65z" />
<glyph unicode="&#x205f;" horiz-adv-x="400" />
<glyph unicode="&#x20ac;" horiz-adv-x="1138" d="M57 451l33 90h78v41q0 58 6 114h-84l33 90h65q25 115 78 201t124 135t149 73t163 24q64 0 120.5 -11.5t91.5 -28.5t61.5 -33.5t37.5 -27.5l11 -12v-168h-45q-13 93 -80 152t-194 59q-213 0 -246 -363h387l-33 -90h-358q0 -11 -1 -33.5t-1 -35.5q0 -59 2 -86h354l-33 -90 h-315q38 -402 250 -402q112 0 180.5 46t114.5 126l61 -33q-21 -34 -31 -48t-32 -42t-39 -40.5t-47 -30.5t-62 -26t-78 -14.5t-100 -6.5q-204 0 -338 122.5t-164 348.5h-119z" />
<glyph unicode="&#x2122;" horiz-adv-x="1849" d="M102 1110v109h635v-109h-26q0 56 -43 72h-170v-576q11 -22 77 -22v-23h-311v23q67 0 78 22v576h-172q-43 -16 -43 -72h-25zM764 561v23q67 0 78 22v568q-11 22 -78 22v23h223l262 -523l262 523h224v-23q-65 0 -76 -22v-568q11 -22 76 -22v-23h-310v23q65 0 76 22v506 l-274 -551h-62l-280 557v-512q11 -22 76 -22v-23h-197z" />
<glyph unicode="&#x25fc;" horiz-adv-x="901" d="M0 0v901h901v-901h-901z" />
<glyph unicode="&#xfb01;" horiz-adv-x="1239" d="M43 0v43q63 0 91.5 9.5t37.5 31.5v756h-102v61h102v70q0 87 24 150.5t68 99.5t97.5 52.5t119.5 16.5q121 0 183.5 -37.5t62.5 -83.5q0 -40 -19.5 -66t-62.5 -26q-40 0 -60 15.5t-24.5 38t-6.5 45t-13.5 38t-38.5 15.5q-74 0 -74 -230v-98h158v-61h-158v-756 q9 -22 37.5 -31.5t91.5 -9.5v-43h-514zM696 0v43q63 0 91.5 9.5t37.5 31.5v694q-106 8 -129 8v48q39 0 188.5 44t196.5 44v-838q9 -22 37.5 -31.5t91.5 -9.5v-43h-514zM799 1174q0 43 46 79.5t97 36.5q49 0 99.5 -36.5t50.5 -86.5q0 -43 -46.5 -78.5t-97.5 -35.5 q-50 0 -99.5 35.5t-49.5 85.5z" />
<glyph unicode="&#xfb02;" horiz-adv-x="1239" d="M43 0v43q63 0 91.5 9.5t37.5 31.5v756h-102v61h102v17q0 106 30 180.5t87 115.5t128.5 58.5t166.5 17.5q174 0 278 -51q167 51 219 51v-1206q9 -22 37.5 -31.5t91.5 -9.5v-43h-514v43q63 0 91.5 9.5t37.5 31.5v995q-31 4 -53 21.5t-35.5 38.5t-28 41.5t-40.5 34.5t-64 14 q-78 0 -127 -70t-49 -213v-45h158v-61h-158v-756q9 -22 37.5 -31.5t91.5 -9.5v-43h-514z" />
<glyph unicode="&#xfb03;" horiz-adv-x="1892" d="M43 0v43q63 0 91.5 9.5t37.5 31.5v756h-102v61h102v70q0 87 24 150.5t68 99.5t97.5 52.5t119.5 16.5q121 0 183.5 -37.5t62.5 -83.5q0 -40 -19.5 -66t-62.5 -26q-40 0 -60 15.5t-24.5 38t-6.5 45t-13.5 38t-38.5 15.5q-74 0 -74 -230v-98h158v-61h-158v-756 q9 -22 37.5 -31.5t91.5 -9.5v-43h-514zM696 0v43q63 0 91.5 9.5t37.5 31.5v756h-102v61h102v70q0 168 85.5 243.5t224.5 75.5q121 0 183 -37.5t62 -83.5q0 -40 -19.5 -66t-62.5 -26q-40 0 -60 15.5t-24.5 38t-6.5 45t-13.5 38t-38.5 15.5q-74 0 -74 -230v-98h158v-61h-158 v-756q9 -22 37.5 -31.5t91.5 -9.5v-43h-514zM1350 0v43q63 0 91.5 9.5t37.5 31.5v694q-106 8 -129 8v48q38 0 188 44t197 44v-838q9 -22 37.5 -31.5t91.5 -9.5v-43h-514zM1452 1174q0 43 46 79.5t97 36.5q49 0 99.5 -36.5t50.5 -86.5q0 -43 -46 -78.5t-97 -35.5 q-50 0 -100 35.5t-50 85.5z" />
<glyph unicode="&#xfb04;" horiz-adv-x="1892" d="M43 0v43q63 0 91.5 9.5t37.5 31.5v756h-102v61h102v70q0 87 24 150.5t68 99.5t97.5 52.5t119.5 16.5q121 0 183.5 -37.5t62.5 -83.5q0 -40 -19.5 -66t-62.5 -26q-40 0 -60 15.5t-24.5 38t-6.5 45t-13.5 38t-38.5 15.5q-74 0 -74 -230v-98h158v-61h-158v-756 q9 -22 37.5 -31.5t91.5 -9.5v-43h-514zM696 0v43q63 0 91.5 9.5t37.5 31.5v756h-102v61h102v17q0 106 30 180.5t87 115.5t128.5 58.5t166.5 17.5q175 0 279 -51q167 51 219 51v-1206q9 -22 37.5 -31.5t91.5 -9.5v-43h-514v43q63 0 91.5 9.5t37.5 31.5v995q-31 4 -53.5 21.5 t-35.5 38.5t-28 41.5t-41 34.5t-64 14q-78 0 -127 -70t-49 -213v-45h158v-61h-158v-756q9 -22 37.5 -31.5t91.5 -9.5v-43h-514z" />
</font>
</defs>
</svg>
